Télécharger Jurassic World Blu-Ray 3D

(TRUEFRENCH = Vraie voix française)

Qualité BLURAY 3D | TRUEFRENCH

Jurassic World

Jurassic World

Origine du film : Américain
Réalisateur : Colin Trevorrow
Acteurs : Chris Pratt, Bryce Dallas Howard, Nick Robinson
Genre : Aventure, Action, Science fiction
Durée : 2h5min
Date de sortie : 10 juin 2015
Année de production : 2015
Distribué par : Universal Pictures International France
Note presse : Jurassic World 2,9/5
Note spectateurs : Jurassic World 3,8/5 (11 643)
Bande annonce : 19552919″>Cliquez-ici pour voir la bande annonce
35788cca1b8d6b4d5942c12c0975ed1f »> 19552919

Jurassic World

L’Indominus Rex, un dinosaure génétiquement modifié, pure création de la scientifique Claire Dearing, sème la terreur dans le fameux parc d’attraction. Les espoirs de mettre fin à cette menace reptilienne se portent alors sur le dresseur de raptors Owen Grady et sa cool attitude.

98701

Jurassic World

Format : MKV
Découpé avec : Winrar
Sous-titres : Forcé pour les passages en langue étrangère.

Jurassic World

Jurassic.World.2015.3D.SBS.1080P.FR.AC3-Only3D

(12840 Mo)

[Liens Interchangeables entre hébergeurs: 12x 1000 Mo + 1x 840 Mo]

Uptobox
Télécharger

Uplea
Télécharger

1fichier
Télécharger

Uploaded
Télécharger

Rapidgator
Télécharger

TurboBit
Télécharger

[Liens PREMIUM]

Uptobox
Télécharger

Uplea
Télécharger

1fichier
Télécharger

Uploaded
Télécharger

TurboBit
Télécharger

NFO :

 Afficher / Masquer le texte
41545529cfaea22ed8890b81034f9ebd » class= »text_spoiler » style= »display: none; »>

General
Format : Matroska
Format version : Version 4 / Version 2
File size : 12.5 GiB
Duration : 2h 4mn
Overall bit rate : 14.4 Mbps
Encoded date : UTC 2015-09-26 18:58:58
Writing application : mkvmerge v7.6.0 (‘Garden of Dreams’) 64bit built on Feb 8 2015 15:43:43
Writing library : libebml v1.3.1 + libmatroska v1.4.2
_STATISTICS_WRITING_APP : mkvmerge v7.6.0 (‘Garden of Dreams’) 64bit built on Feb 8 2015 15:43:43
_STATISTICS_WRITING_DATE_UTC : 2015-09-26 18:58:58
_STATISTICS_TAGS : BPS DURATION NUMBER_OF_FRAMES NUMBER_OF_BYTES
DURATION : 02:02:57.579000000
NUMBER_OF_FRAMES : 10
NUMBER_OF_BYTES : 30615

Video
ID : 1
Format : AVC
Format/Info : Advanced Video Codec
Format profile : [email protected]
Format settings, CABAC : Yes
Format settings, ReFrames : 4 frames
Codec ID : V_MPEG4/ISO/AVC
Duration : 2h 4mn
Bit rate : 14.0 Mbps
Width : 1 920 pixels
Height : 1 080 pixels
Display aspect ratio : 16:9
Frame rate mode : Constant
Frame rate : 23.976 fps
Color space : YUV
Chroma subsampling : 4:2:0
Bit depth : 8 bits
Scan type : Progressive
Bits/(Pixel*Frame) : 0.281
Stream size : 11.9 GiB (95%)
Writing library : x264 core 142 r2431 ac76440
Encoding settings : cabac=1 / ref=3 / deblock=1:0:0 / analyse=0x3:0x113 / me=hex / subme=7 / psy=1 / psy_rd=1.00:0.00 / mixed_ref=1 / me_range=16 / chroma_me=1 / trellis=1 / 8x8dct=1 / cqm=0 / deadzone=21,11 / fast_pskip=1 / chroma_qp_offset=-2 / threads=18 / lookahead_threads=3 / sliced_threads=0 / nr=0 / decimate=1 / interlaced=0 / bluray_compat=0 / constrained_intra=0 / bframes=3 / b_pyramid=2 / b_adapt=1 / b_bias=0 / direct=1 / weightb=1 / open_gop=0 / weightp=2 / keyint=240 / keyint_min=23 / scenecut=40 / intra_refresh=0 / rc_lookahead=40 / rc=2pass / mbtree=1 / bitrate=13967 / ratetol=1.0 / qcomp=0.60 / qpmin=0 / qpmax=69 / qpstep=4 / cplxblur=20.0 / qblur=0.5 / ip_ratio=1.40 / aq=1:1.00
Language : English
Default : Yes
Forced : No
_STATISTICS_WRITING_APP : mkvmerge v7.6.0 (‘Garden of Dreams’) 64bit built on Feb 8 2015 15:43:43
_STATISTICS_WRITING_DATE_UTC : 2015-09-26 18:58:58
_STATISTICS_TAGS : BPS DURATION NUMBER_OF_FRAMES NUMBER_OF_BYTES
DURATION : 02:04:22.747000000
NUMBER_OF_FRAMES : 178927
NUMBER_OF_BYTES : 13023433247

Audio
ID : 2
Format : AC-3
Format/Info : Audio Coding 3
Mode extension : CM (complete main)
Format settings, Endianness : Big
Codec ID : A_AC3
Duration : 2h 4mn
Bit rate mode : Constant
Bit rate : 448 Kbps
Channel(s) : 6 channels
Channel positions : Front: L C R, Side: L R, LFE
Sampling rate : 48.0 KHz
Bit depth : 16 bits
Compression mode : Lossy
Stream size : 399 MiB (3%)
Title : AC3
Language : French
Default : No
Forced : No

Text
ID : 3
Format : PGS
Muxing mode : zlib
Codec ID : S_HDMV/PGS
Codec ID/Info : The same subtitle format used on BDs/HD-DVDs
Title : FR Forcé
Default : Yes
Forced : Yes