Telecharger Jurassic World [BLURAY 720p] French

(TRUEFRENCH = Vraie voix française)

Qualité BLURAY 720p | TRUEFRENCH | DTS

Jurassic World

Jurassic World

Origine du film : Américain
Réalisateur : Colin Trevorrow
Acteurs : Chris Pratt, Bryce Dallas Howard, Nick Robinson
Genre : Aventure, Action, Science fiction
Durée : 2h5min
Date de sortie : 10 juin 2015
Année de production : 2015
Distribué par : Universal Pictures International France
Note presse : Jurassic World 2,9/5
Note spectateurs : Jurassic World

; »>3,8/5 (11 624)
Bande annonce :

55b7e94914cdb5cdc5ff92848cd77806

19552919″>Cliquez-ici pour voir la bande annonce 55b7e94914cdb5cdc5ff92848cd77806″> 19552919

55b7e94914cdb5cdc5ff92848cd77806

Jurassic World

L’Indominus Rex, un dinosaure génétiquement modifié, pure création de la scientifique Claire Dearing, sème la terreur dans le fameux parc d’attraction. Les espoirs de mettre fin à cette menace reptilienne se portent alors sur le dresseur de raptors Owen Grady et sa cool attitude.
98628″ style= »display:inline; »>

Jurassic World

Format : MKV
Découpé avec : Winrar
Sous-titres : Forcé pour les passages en langue étrangère.

Jurassic World

Version DTS

Jurassic.World.2015.FRENCH.720p.BluRay.x264-Goatlove

(4472 Mo)

[Liens Interchangeables entre hébergeurs: 4x 1000 Mo + 1x 472 Mo]

Uptobox
Télécharger

Uplea
Télécharger

1fichier
Télécharger

Uploaded
Télécharger

Rapidgator
Télécharger

TurboBit
Télécharger

[Liens PREMIUM]

Uptobox
Télécharger

Uplea
Télécharger

1fichier
Télécharger

Uploaded
Télécharger

Rapidgator
Télécharger

TurboBit
Télécharger

NFO :

Afficher / Masquer le texte f442d490a5c078cbe543a1700346fedd » class= »text_spoiler » style= »display:none; »>General
Format : Matroska
Format version : Version 2
File size : 4.37 GiB
Duration : 2h 4mn
Overall bit rate : 5 028 Kbps
Writing application : mkvmerge v6.6.0 (‘The Edge Of The In Between’) built on Dec 1 2013 17:55:00
Writing library : libebml v1.3.0 + libmatroska v1.4.1

Video
ID : 1
Format : AVC
Format/Info : Advanced Video Codec
Format profile : [email protected]
Format settings, CABAC : Yes
Format settings, ReFrames : 5 frames
Codec ID : V_MPEG4/ISO/AVC
Duration : 2h 4mn
Bit rate : 4 259 Kbps
Width : 1 280 pixels
Height : 640 pixels
Display aspect ratio : 2.000
Frame rate mode : Constant
Frame rate : 23.976 fps
Color space : YUV
Chroma subsampling : 4:2:0
Bit depth : 8 bits
Scan type : Progressive
Bits/(Pixel*Frame) : 0.217
Stream size : 3.61 GiB (83%)
Writing library : x264 core 148 r2597 e86f3a1
Encoding settings : cabac=1 / ref=5 / deblock=1:0:0 / analyse=0x3:0x133 / me=umh / subme=8 / psy=1 / psy_rd=1.00:0.00 / mixed_ref=1 / me_range=16 / chroma_me=1 / trellis=1 / 8x8dct=1 / cqm=0 / deadzone=21,11 / fast_pskip=0 / chroma_qp_offset=-2 / threads=12 / lookahead_threads=2 / sliced_threads=0 / nr=0 / decimate=1 / interlaced=0 / bluray_compat=0 / constrained_intra=0 / bframes=3 / b_pyramid=2 / b_adapt=1 / b_bias=0 / direct=3 / weightb=1 / open_gop=0 / weightp=2 / keyint=250 / keyint_min=23 / scenecut=40 / intra_refresh=0 / rc_lookahead=40 / rc=2pass / mbtree=1 / bitrate=4259 / ratetol=1.0 / qcomp=0.60 / qpmin=0 / qpmax=69 / qpstep=4 / cplxblur=20.0 / qblur=0.5 / ip_ratio=1.40 / aq=1:1.00
Language : English
Default : Yes
Forced : No

Audio
ID : 2
Format : DTS
Format/Info : Digital Theater Systems
Mode : 16
Format settings, Endianness : Big
Codec ID : A_DTS
Duration : 2h 4mn
Bit rate mode : Constant
Bit rate : 768 Kbps
Channel(s) : 6 channels
Channel positions : Front: L C R, Side: L R, LFE
Sampling rate : 48.0 KHz
Bit depth : 24 bits
Compression mode : Lossy
Stream size : 683 MiB (15%)
Title : French
Language : French
Default : Yes
Forced : No

Text
ID : 3
Format : UTF-8
Codec ID : S_TEXT/UTF8
Codec ID/Info : UTF-8 Plain Text
Title : French Forced
Language : frf
Default : Yes
Forced : Yes

Menu
00:00:00.000 : en:00:00:00.000
00:06:59.169 : en:00:06:59.169
00:11:01.828 : en:00:11:01.828
00:18:28.441 : en:00:18:28.441
00:25:34.867 : en:00:25:34.867
00:31:20.837 : en:00:31:20.837
00:39:23.861 : en:00:39:23.861
00:44:07.854 : en:00:44:07.854
00:48:57.226 : en:00:48:57.226
00:55:51.056 : en:00:55:51.056
01:01:21.344 : en:01:01:21.344
01:09:50.561 : en:01:09:50.561
01:15:25.479 : en:01:15:25.479
01:23:51.860 : en:01:23:51.860
01:30:14.701 : en:01:30:14.701
01:36:45.425 : en:01:36:45.425
01:41:15.653 : en:01:41:15.653
01:47:35.282 : en:01:47:35.282
01:53:06.029 : en:01:53:06.029
01:55:37.556 : en:01:55:37.556


Version AC3

Jurassic.World.2015.TRUEFRENCH.720p.BluRay.x264-SVR

(4650 Mo)

[Liens Interchangeables entre hébergeurs: 4x 1000 Mo + 1x 650 Mo]

Uptobox
Télécharger

Uplea
Télécharger

1fichier
Télécharger

Uploaded
Télécharger

Rapidgator
Télécharger

TurboBit
Télécharger

[Liens PREMIUM]

Uptobox
Télécharger

Uplea
Télécharger

1fichier
Télécharger

Uploaded
Télécharger

Rapidgator
Télécharger

TurboBit
Télécharger

NFO :

Afficher / Masquer le texte 038e09a4022ad23b99fa76678f699081″ class= »text_spoiler » style= »display:none; »>General
Format : Matroska
Format version : Version 2
File size : 4.54 GiB
Duration : 2h 4mn
Overall bit rate : 5 228 Kbps
Encoded date : UTC 2015-09-26 01:44:38
Writing application : mkvmerge v5.6.0 (‘Kenya Kane’) built on May 28 2012 06:47:39
Writing library : libebml v1.2.2 + libmatroska v1.3.0

Video
ID : 2
Format : AVC
Format/Info : Advanced Video Codec
Format profile : [email protected]
Format settings, CABAC : Yes
Format settings, ReFrames : 5 frames
Muxing mode : Header stripping
Codec ID : V_MPEG4/ISO/AVC
Duration : 2h 4mn
Bit rate : 4 781 Kbps
Width : 1 280 pixels
Height : 640 pixels
Display aspect ratio : 2.000
Frame rate mode : Constant
Frame rate : 23.976 fps
Color space : YUV
Chroma subsampling : 4:2:0
Bit depth : 8 bits
Scan type : Progressive
Bits/(Pixel*Frame) : 0.243
Stream size : 4.06 GiB (89%)
Writing library : x264 core 148 r2597 e86f3a1
Encoding settings : cabac=1 / ref=5 / deblock=1:0:0 / analyse=0x3:0x133 / me=umh / subme=7 / psy=1 / psy_rd=1.00:0.00 / mixed_ref=1 / me_range=16 / chroma_me=1 / trellis=1 / 8x8dct=1 / cqm=0 / deadzone=21,11 / fast_pskip=0 / chroma_qp_offset=-2 / threads=18 / lookahead_threads=3 / sliced_threads=0 / nr=0 / decimate=1 / interlaced=0 / bluray_compat=0 / constrained_intra=0 / bframes=3 / b_pyramid=2 / b_adapt=1 / b_bias=0 / direct=1 / weightb=1 / open_gop=0 / weightp=2 / keyint=250 / keyint_min=23 / scenecut=40 / intra_refresh=0 / rc_lookahead=40 / rc=2pass / mbtree=1 / bitrate=4781 / ratetol=1.0 / qcomp=0.60 / qpmin=0 / qpmax=69 / qpstep=4 / cplxblur=20.0 / qblur=0.5 / ip_ratio=1.40 / aq=1:1.00
Language : English
Default : Yes
Forced : No

Audio
ID : 3
Format : AC-3
Format/Info : Audio Coding 3
Mode extension : CM (complete main)
Format settings, Endianness : Big
Muxing mode : Header stripping
Codec ID : A_AC3
Duration : 2h 4mn
Bit rate mode : Constant
Bit rate : 448 Kbps
Channel(s) : 6 channels
Channel positions : Front: L C R, Side: L R, LFE
Sampling rate : 48.0 KHz
Bit depth : 16 bits
Compression mode : Lossy
Stream size : 398 MiB (9%)
Title : VFF 448 kbps
Language : French
Default : Yes
Forced : Yes

Text
ID : 1
Format : UTF-8
Codec ID : S_TEXT/UTF8
Codec ID/Info : UTF-8 Plain Text
Title : FR_FORCED 1L
Language : French
Default : Yes
Forced : Yes