Telecharger Jusqu'en enfer [BLURAY 720p] French

BLURAY 720p | MULTiLANGUES

Jusqu'en enfer

Jusqu'en enfer

Jusqu'en enfer

Origine du film : Américain
Réalisateur : Sam Raimi
Acteurs : Alison Lohman, Justin Long, Jessica Lucas
Genre : Epouvante-horreur
Durée : 1h 39min
Date de sortie : 27 mai 2009
Année de production : 2009
Titre Original : Drag me to Hell
Distribué par : Metropolitan FilmExport
Note presse : Jusqu'en enfer 3,8/5
Note spectateurs : Jusqu'en enfer 3,4/5 (4 775)
Bande annonce :

a8e244257671812e3e47816cb4d6da69

18873870″>Cliquez-ici pour voir la bande annonce a8e244257671812e3e47816cb4d6da69″> 18873870

a8e244257671812e3e47816cb4d6da69

Jusqu'en enfer

Christine Brown, spécialiste en crédit immobilier, vit à Los Angeles avec son petit ami, le Professeur Clay Dalton. Tout va pour le mieux jusqu'au jour où la mystérieuse Mme Ganush débarque à la banque et la supplie de lui accorder un crédit supplémentaire pour sa maison. Christine hésite entre la compassion et la pression de son patron, Mr Hicks, qui la voudrait plus ferme avant de lui octroyer une promotion. Fatalement, Christine choisit sa carrière, même si sa décision met Mme Ganush à la rue. Pour se venger, la vieille femme jette la malédiction du Lamia sur Christine, transformant sa vie en un véritable cauchemar. Hantée par un esprit malfaisant, incomprise de son petit ami, elle se fait aider du medium Rham Jas, qui l'entraine dans une course frénétique contre la damnation éternelle, pour inverser le sortilège…

Nom de la release : Drag Me To Hell 2009 MULTi 720p BluRay x264-RiV3R 24412″ style= »display:inline; »>

Qualité : BLURAY 720p
Format : MKV
Langue : Multilangage
Sous-titre : Français
Nombre de fichiers : 4 Fichiers
Taille des fichiers : 1000 Mo 489 Mo
Taille totale : 3489 Mo

[Liens Interchangeables]

1fichier.com
Télécharger

Uptobox.com
Télécharger

Free
Télécharger

Uploaded.net
Télécharger

Rapidgator.net
Upload en cour…

TurboBit.net
Télécharger

[1 Lien PREMIUM]

1fichier.com
Télécharger

Uptobox.com
Télécharger

Free
Upload en cour…

Uploaded.net
Télécharger

TurboBit.net
Télécharger

NFO :

Afficher / Masquer le texte e32733099b02d17b200e2f9b10e43f67″ class= »text_spoiler » style= »display:none; »>Complete name : Drag.Me.To.Hell.2009.MULTi.720p.BluRay.x264-RiV3R.mkv
Format : Matroska
File size : 3.41 GiB
Duration : 1h 39mn
Overall bit rate : 4 927 Kbps
Encoded date : UTC 2013-04-12 19:42:38
Writing application : mkvmerge v5.0.1 ('Es ist Sommer') built on Oct 13 2011 06:24:21
Writing library : libebml v1.2.2 libmatroska v1.3.0

Video
ID : 1
Format : AVC
Format/Info : Advanced Video Codec
Format profile : [email protected]
Format settings, CABAC : Yes
Format settings, ReFrames : 9 frames
Codec ID : V_MPEG4/ISO/AVC
Duration : 1h 39mn
Bit rate : 2 565 Kbps
Width : 1 280 pixels
Height : 534 pixels
Display aspect ratio : 2.35:1
Frame rate mode : Variable
Frame rate : 23.976 fps
Color space : YUV
Chroma subsampling : 4:2:0
Bit depth : 8 bits
Scan type : Progressive
Bits/(Pixel*Frame) : 0.157
Stream size : 1.78 GiB (52%)
Writing library : x264 core 130
Encoding settings : cabac=1 / ref=9 / deblock=1:-3:-3 / analyse=0x3:0x133 / me=umh / subme=11 / psy=1 / psy_rd=1.00:0.20 / mixed_ref=1 / me_range=64 / chroma_me=1 / trellis=2 / 8x8dct=1 / cqm=0 / deadzone=6,6 / fast_pskip=0 / chroma_qp_offset=-3 / threads=6 / lookahead_threads=1 / sliced_threads=0 / nr=0 / decimate=1 / interlaced=0 / bluray_compat=0 / constrained_intra=0 / bframes=16 / b_pyramid=2 / b_adapt=2 / b_bias=0 / direct=3 / weightb=1 / open_gop=0 / weightp=1 / keyint=240 / keyint_min=24 / scenecut=40 / intra_refresh=0 / rc_lookahead=10 / rc=crf / mbtree=1 / crf=18.8 / qcomp=0.60 / qpmin=0 / qpmax=69 / qpstep=4 / vbv_maxrate=50000 / vbv_bufsize=50000 / crf_max=0.0 / nal_hrd=none / ip_ratio=1.40 / aq=2:1.00
Language : English
Color primaries : BT.709-5, BT.1361, IEC 61966-2-4, SMPTE RP177
Transfer characteristics : BT.709-5, BT.1361
Matrix coefficients : BT.709-5, BT.1361, IEC 61966-2-4 709, SMPTE RP177

Audio #1
ID : 2
Format : DTS
Format/Info : Digital Theater Systems
Codec ID : A_DTS
Duration : 1h 39mn
Bit rate mode : Constant
Bit rate : 754 Kbps
Channel(s) : 6 channels
Channel positions : Front: L C R, Side: L R, LFE
Sampling rate : 48.0 KHz
Bit depth : 24 bits
Compression mode : Lossy
Stream size : 535 MiB (15%)
Language : French

Audio #2
ID : 3
Format : DTS
Format/Info : Digital Theater Systems
Codec ID : A_DTS
Duration : 1h 39mn
Bit rate mode : Constant
Bit rate : 1 510 Kbps
Channel(s) : 6 channels
Channel positions : Front: L C R, Side: L R, LFE
Sampling rate : 48.0 KHz
Bit depth : 24 bits
Compression mode : Lossy
Stream size : 1.05 GiB (31%)
Language : English

Text #1
ID : 4
Format : UTF-8
Codec ID : S_TEXT/UTF8
Codec ID/Info : UTF-8 Plain Text
Title : SRT FR Forces
Language : French

Text #2
ID : 5
Format : UTF-8
Codec ID : S_TEXT/UTF8
Codec ID/Info : UTF-8 Plain Text
Title : SRT FR Complets
Language : French

Jeux Gratuit
15354131_1854970838071206_1069261547_o.png