Telecharger Kaboom [BLURAY 720p] French

Qualité BLURAY 720p | FRENCH | son DTS

Kaboom

Kaboom

Kaboom

Origine du film : Américain
Réalisateur : Gregg Araki
Acteurs : Thomas Dekker, Juno Temple, Roxane Mesquida
Genre : Comédie
Durée : 1h26min
Date de sortie : 6 octobre 2010
Année de production : 2010
Distribué par : Wild Bunch Distribution
Note presse : Kaboom 4,1/5
Note spectateurs : Kaboom 3/5 (3 639)
Bande annonce :

5c80e94fa1f98feea0b687ac3264f429

19140288″>Cliquez-ici pour voir la bande annonce 5c80e94fa1f98feea0b687ac3264f429″> 19140288

5c80e94fa1f98feea0b687ac3264f429

Kaboom

Smith mène une vie tranquille sur le campus – il traîne avec sa meilleure amie, l’insolente Stella, couche avec la belle London, tout en désirant Thor, son sublime colocataire, un surfeur un peu simplet – jusqu’à une nuit terrifiante où tout va basculer. Sous l’effet de space cookies ingérés à une fête, Smith est persuadé d’avoir assisté à l’horrible meurtre de la Fille Rousse énigmatique qui hante ses rêves. En cherchant la vérité, il s’enfonce dans un mystère de plus en plus profond qui changera non seulement sa vie à jamais, mais aussi le sort de l’humanité.
105475″ style= »display:inline; »>

Kaboom

Format : x264
Découpé avec : Winrar

Kaboom

Kaboom.2010.LiMiTED.FRENCH.720p.BluRay.x264-NOTAG

(4381 Mo)

[Liens Interchangeables entre hébergeurs: 4x 1000 Mo + 1x 381 Mo]

Uptobox
Télécharger

Uplea
Télécharger

1fichier
Télécharger

Uploaded
Télécharger

Rapidgator
Télécharger

TurboBit
Télécharger

[ Liens Premium ]

Uptobox
Télécharger

Uplea
Télécharger

1fichier
Télécharger

Uploaded
Télécharger

TurboBit
Télécharger

NFO :

Afficher / Masquer le texte b9c959ebb46d720119b80e759e4747ac » class= »text_spoiler » style= »display:none; »>Kaboom.2010.LiMiTED.FRENCH.720p.BluRay.x264-NOTAG.zone-telechargement.com.mkv
Format : Matroska
Format version : Version 4 / Version 2
File size : 4.37 GiB
Duration : 1h 26mn
Overall bit rate : 7 242 Kbps
Encoded date : UTC 2015-11-18 08:27:01
Writing application : mkvmerge v8.2.0 (‘World of Adventure’) 32bit
Writing library : libebml v1.3.1 + libmatroska v1.4.2
DURATION : 00:00:01.626000000
NUMBER_OF_FRAMES : 1
NUMBER_OF_BYTES : 16
_STATISTICS_WRITING_APP : mkvmerge v8.2.0 (‘World of Adventure’) 32bit
_STATISTICS_WRITING_DATE_UT : 2015-11-18 08:27:01
_STATISTICS_TAGS : BPS DURATION NUMBER_OF_FRAMES NUMBER_OF_BYTES

Video
ID : 1
Format : AVC
Format/Info : Advanced Video Codec
Format profile : [email protected]
Format settings, CABAC : Yes
Format settings, ReFrames : 5 frames
Codec ID : V_MPEG4/ISO/AVC
Duration : 1h 26mn
Bit rate : 5 731 Kbps
Width : 1 280 pixels
Height : 528 pixels
Display aspect ratio : 2.40:1
Frame rate mode : Constant
Frame rate : 23.976 fps
Color space : YUV
Chroma subsampling : 4:2:0
Bit depth : 8 bits
Scan type : Progressive
Bits/(Pixel*Frame) : 0.354
Stream size : 3.37 GiB (77%)
Writing library : x264 core 114 r1913 5fd3dce
Encoding settings : cabac=1 / ref=5 / deblock=1:0:0 / analyse=0x3:0x113 / me=umh / subme=7 / psy=1 / psy_rd=1.00:0.00 / mixed_ref=1 / me_range=16 / chroma_me=1 / trellis=1 / 8x8dct=1 / cqm=0 / deadzone=21,11 / fast_pskip=0 / chroma_qp_offset=-2 / threads=12 / sliced_threads=0 / nr=0 / decimate=1 / interlaced=0 / constrained_intra=0 / bframes=3 / b_pyramid=2 / b_adapt=1 / b_bias=0 / direct=1 / weightb=1 / open_gop=0 / weightp=2 / keyint=250 / keyint_min=23 / scenecut=40 / intra_refresh=0 / rc_lookahead=40 / rc=2pass / mbtree=1 / bitrate=5731 / ratetol=1.0 / qcomp=0.60 / qpmin=0 / qpmax=69 / qpstep=4 / cplxblur=20.0 / qblur=0.5 / ip_ratio=1.40 / aq=1:1.00
Language : English
Default : Yes
Forced : No
DURATION : 01:26:26.557000000
NUMBER_OF_FRAMES : 124353
NUMBER_OF_BYTES : 3715372848
_STATISTICS_WRITING_APP : mkvmerge v8.2.0 (‘World of Adventure’) 32bit
_STATISTICS_WRITING_DATE_UT : 2015-11-18 08:27:01
_STATISTICS_TAGS : BPS DURATION NUMBER_OF_FRAMES NUMBER_OF_BYTES

Audio
ID : 2
Format : DTS
Format/Info : Digital Theater Systems
Mode : 16
Format settings, Endianness : Big
Codec ID : A_DTS
Duration : 1h 26mn
Bit rate mode : Constant
Bit rate : 1 509 Kbps
Channel(s) : 6 channels
Channel positions : Front: L C R, Side: L R, LFE
Sampling rate : 48.0 KHz
Bit depth : 24 bits
Compression mode : Lossy
Stream size : 933 MiB (21%)
Title : DTS 5.1
Language : French
Default : Yes
Forced : No

Text
ID : 3
Format : UTF-8
Codec ID : S_TEXT/UTF8
Codec ID/Info : UTF-8 Plain Text
Title : Forced
Language : French
Default : Yes
Forced : No