Télécharger Katie, bannie des siens (TV) French

Qualité DVDRiP | FRENCH

Katie, bannie des siens (TV)

Katie, bannie des siens (TV)

Katie, bannie des siens (TV)

Origine du film : Américain
Réalisateur : Michael Landon Jr.
Acteurs : Danielle Panabaker, Bill Oberst Jr., Sherry Stringfield
Genre : Drame
Durée : 1h 28min
Année de production : 2011
Titre Original : The Shunning (TV)
Note spectateurs : Katie, bannie des siens (TV) 3/5 (3)

Katie, bannie des siens (TV)

Katie Lapp, jolie et jeune Amish, ressent un vide dans son existence. Tout va basculer le jour où une étrangère arrive à Lancaster County, à la recherche du nourrisson qu’elle a abandonné il y a dix-neuf ans.

Nom de la release : The Shunning 2011 FRENCH DVDRiP XViD-STVFRV 21369″ style= »display:inline; »>

Qualité : DVDRiP
Format : XviD
Langue : Français
Taille totale : 700 Mo

1fichier.com
Télécharger

Uptobox.com
Télécharger

Free
Télécharger

Uploaded.net
Télécharger

Rapidgator.net
Upload en cour…

TurboBit.net
Télécharger

Mega
Upload en cour…

NFO :

Afficher / Masquer le texte 61f6cf9331dc92b9729289f4426335f4″ class= »text_spoiler » style= »display:none; »>Format : AVI
Format/Info : Audio Video Interleave
File size : 696 MiB
Duration : 1h 27mn
Overall bit rate : 1 109 Kbps
Writing application : VirtualDubMod 1.5.1.1a (build 1155/release)
Writing library : VirtualDubMod build 1155/release

Video
ID : 0
Format : MPEG-4 Visual
Format profile : Advanced [email protected]
Format settings, BVOP : 2
Format settings, QPel : No
Format settings, GMC : No warppoints
Format settings, Matrix : Default (H.263)
Muxing mode : Packed bitstream
Codec ID : XVID
Codec ID/Hint : XviD
Duration : 1h 27mn
Bit rate : 968 Kbps
Width : 624 pixels
Height : 352 pixels
Display aspect ratio : 16:9
Frame rate : 23.976 fps
Color space : YUV
Chroma subsampling : 4:2:0
Bit depth : 8 bits
Scan type : Progressive
Compression mode : Lossy
Bits/(Pixel*Frame) : 0.184
Stream size : 608 MiB (87%)
Writing library : XviD 1.2.0.dev49

Audio
ID : 1
Format : MPEG Audio
Format version : Version 1
Format profile : Layer 3
Codec ID : 55
Codec ID/Hint : MP3
Duration : 1h 27mn
Bit rate mode : Variable
Bit rate : 128 Kbps
Channel(s) : 2 channels
Sampling rate : 48.0 KHz
Compression mode : Lossy
Stream size : 80.7 MiB (12%)
Alignment : Aligned on interleaves
Interleave, duration : 24 ms (0.58 video frame)
Interleave, preload duration : 119 ms

Jeux Gratuit
15354131_1854970838071206_1069261547_o.png