Telecharger Kill Your Darlings – Obsession meurtrière [BLURAY 720p] French

(TRUEFRENCH = Vraie voix française)

Qualité BLURAY 720p | TRUEFRENCH

Kill Your Darlings - Obsession meurtrière

Kill Your Darlings - Obsession meurtrière

Kill Your Darlings - Obsession meurtrière

Origine du film : Américain
Réalisateur : John Krokidas
Acteurs : Daniel Radcliffe, Dane DeHaan, Michael C. Hall
Genre : Drame, Biopic
Durée : 1h43min
Année de production : 2013
Titre Original : Kill Your Darlings
Distribué par : Metropolitan FilmExport
Note spectateurs : Kill Your Darlings - Obsession meurtrière

; »>3,9/5 (149)
Bande annonce :

a4fa9ef0fd9ddb96459b9f819ec8beb3

19557207″>Cliquez-ici pour voir la bande annonce a4fa9ef0fd9ddb96459b9f819ec8beb3″> 19557207

a4fa9ef0fd9ddb96459b9f819ec8beb3

Kill Your Darlings - Obsession meurtrière

Allen Ginsberg, Jack Kerouac, William Burroughs… ils sont les plus grands écrivains américains du 20ème siècle. Kill your Darlings retrace l’histoire de leur rencontre et de leur révolte contre la société américaine. Au milieu d’une frénésie de fêtes, d’alcool et de passions interdites, tous ces jeunes gens enflammés perdent peu à peu leurs repères… jusqu’au meurtre.
99189″ style= »display:inline; »>

Kill Your Darlings - Obsession meurtrière

Format : MKV

Kill Your Darlings - Obsession meurtrière

Kill.Your.Darlings.2013.FRENCH.720p.BluRay.x264-JUSTFORFUN

(5767 Mo)

[Liens Interchangeables entre hébergeurs: 5x 1000 Mo + 1x 767 Mo]

Uptobox
Télécharger

Uplea
Télécharger

1fichier
Télécharger

Uploaded
Télécharger

Rapidgator
Télécharger

TurboBit
Télécharger

1 Lien Premium – 4.4 Go

Uptobox Premium
Télécharger

Uplea Premium
Télécharger

1fichier Premium
Télécharger

Uploaded Premium
Télécharger

TurboBit Premium
Télécharger

NFO :

Afficher / Masquer le texte 454cae7c5e694135c7f1655cfe702ce6″ class= »text_spoiler » style= »display:none; »>General
Unique ID : 181718616690260862185149947499369683016 (0x88B5BB87531AD188A0B2EE1334E75848)
Complete name : X:Kill Your Darlings 2013 FRENCH 720p BluRay x264-JUSTFORFUN.mkv
Format : Matroska
Format version : Version 4 / Version 2
File size : 5.63 GiB
Duration : 1h 42mn
Overall bit rate : 7 849 Kbps
Encoded date : UTC 2015-09-30 07:47:16
Writing application : mkvmerge v7.8.0 (‘River Man’) 64bit built on Mar 27 2015 16:31:37
Writing library : libebml v1.3.1 + libmatroska v1.4.2
DURATION : 01:42:36.256000000
NUMBER_OF_FRAMES : 192383
NUMBER_OF_BYTES : 344750336
_STATISTICS_WRITING_APP : mkvmerge v7.8.0 (‘River Man’) 64bit built on Mar 27 2015 16:31:37
_STATISTICS_WRITING_DATE_UT : 2015-09-30 07:47:16
_STATISTICS_TAGS : BPS DURATION NUMBER_OF_FRAMES NUMBER_OF_BYTES

Video
ID : 1
Format : AVC
Format/Info : Advanced Video Codec
Format profile : [email protected]
Format settings, CABAC : Yes
Format settings, ReFrames : 12 frames
Codec ID : V_MPEG4/ISO/AVC
Duration : 1h 42mn
Bit rate : 7 245 Kbps
Width : 1 280 pixels
Height : 534 pixels
Display aspect ratio : 2.40:1
Frame rate mode : Constant
Frame rate : 23.976 fps
Color space : YUV
Chroma subsampling : 4:2:0
Bit depth : 8 bits
Scan type : Progressive
Bits/(Pixel*Frame) : 0.442
Stream size : 5.20 GiB (92%)
Writing library : x264 core 142 r2389kMod 956c8d8
Encoding settings : cabac=1 / ref=12 / deblock=1:-3:-3 / analyse=0x3:0x133 / me=tesa / subme=11 / psy=1 / fade_compensate=0.00 / psy_rd=1.00:0.00 / mixed_ref=1 / me_range=24 / chroma_me=1 / trellis=2 / 8x8dct=1 / cqm=0 / deadzone=21,11 / fast_pskip=0 / chroma_qp_offset=-2 / threads=12 / lookahead_threads=2 / sliced_threads=0 / nr=0 / decimate=1 / interlaced=0 / bluray_compat=0 / constrained_intra=0 / fgo=0 / bframes=9 / b_pyramid=2 / b_adapt=2 / b_bias=0 / direct=3 / weightb=1 / open_gop=0 / weightp=2 / keyint=250 / keyint_min=23 / scenecut=40 / intra_refresh=0 / rc=crf / mbtree=0 / crf=16.2000 / qcomp=0.65 / qpmin=0 / qpmax=69 / qpstep=4 / ip_ratio=1.30 / pb_ratio=1.20 / aq=1:0.75
Language : English
Default : Yes
Forced : No
Color range : Limited
Matrix coefficients : BT.709
DURATION : 01:42:44.117000000
NUMBER_OF_FRAMES : 147791
NUMBER_OF_BYTES : 5701899202
_STATISTICS_WRITING_APP : mkvmerge v7.8.0 (‘River Man’) 64bit built on Mar 27 2015 16:31:37
_STATISTICS_WRITING_DATE_UT : 2015-09-30 07:47:16
_STATISTICS_TAGS : BPS DURATION NUMBER_OF_FRAMES NUMBER_OF_BYTES

Audio
ID : 3
Format : AC-3
Format/Info : Audio Coding 3
Mode extension : CM (complete main)
Format settings, Endianness : Big
Codec ID : A_AC3
Duration : 1h 42mn
Bit rate mode : Constant
Bit rate : 448 Kbps
Channel(s) : 6 channels
Channel positions : Front: L C R, Side: L R, LFE
Sampling rate : 48.0 KHz
Compression mode : Lossy
Stream size : 329 MiB (6%)
Title : french
Language : French
Default : Yes
Forced : No

Text
ID : 2
Format : UTF-8
Codec ID : S_TEXT/UTF8
Codec ID/Info : UTF-8 Plain Text
Default : Yes
Forced : No

Menu
00:00:00.000 : en:00:00:00.000
00:05:39.339 : en:00:05:39.339
00:09:11.926 : en:00:09:11.926
00:13:45.992 : en:00:13:45.992
00:23:31.118 : en:00:23:31.118
00:28:50.354 : en:00:28:50.354
00:36:31.272 : en:00:36:31.272
00:42:13.781 : en:00:42:13.781
00:45:57.838 : en:00:45:57.838
00:54:10.622 : en:00:54:10.622
00:57:41.583 : en:00:57:41.583
01:03:23.508 : en:01:03:23.508
01:08:16.509 : en:01:08:16.509
01:12:17.583 : en:01:12:17.583
01:20:11.807 : en:01:20:11.807
01:28:02.319 : en:01:28:02.319