Télécharger King Kong

Qualité BLURAY 720p | FRENCH | son DTS

King Kong

King Kong

Origine du film : Américain
Réalisateur : John Guillermin
Acteurs : Jeff Bridges, John Randolph, Rene Auberjonois
Genre : Fantastique, Aventure, Romance
Durée : 2h14min
Année de production : 1976
Note spectateurs : King Kong 2,7/5 (1 198)
Bande annonce :

9799cbef5d81e834b9912301fe26940c

18740972″>Cliquez-ici pour voir la bande annonce 9799cbef5d81e834b9912301fe26940c »> 18740972

9799cbef5d81e834b9912301fe26940c

King Kong

1976. Un paquebot d’une société pétrolière navigue à la recherche de la mystérieuse « île du crâne ». A la tête de l’expédition, Fred Wilson, un employé de la compagnie, chargé de trouver des gisements de pétrole. A ses côtés, le professeur Prescott est en quête de tout autre chose : une créature préhistorique gigantesque. L’équipage sauve une jeune femme naufragée, Dwan. Bientôt, ils se retrouvent sur l’île, au contact de sauvages, qui vénèrent une créature nommée « Kong »…
103145″ style= »display:inline; »>

King Kong

Format : MKV
Découpé avec : Winrar

King Kong

King.Kong.1976.720p.FRENCH.Bluray.X264-BARC0DE

(7168 Mo)

[Liens Interchangeables entre hébergeurs: 7x 1000 Mo + 1x 168 Mo]

Uptobox
Télécharger

Uplea
Télécharger

1fichier
Télécharger

Uploaded
Télécharger

Rapidgator
Télécharger

TurboBit
Télécharger

[ Liens Premium ]

Uptobox
Télécharger

Uplea
Télécharger

1fichier
Télécharger

Uploaded
Télécharger

TurboBit
Télécharger

NFO :

Afficher / Masquer le texte 28ce73a88cddad8a90506e669ae94ba1″ class= »text_spoiler » style= »display:none; »>King.Kong.1976.720p.FRENCH.Bluray.X264-BARC0DE.mkv
Format : Matroska
Format version : Version 4 / Version 2
File size : 7.01 GiB
Duration : 2h 14mn
Overall bit rate : 7 464 Kbps
Encoded date : UTC 2015-10-31 00:01:57
Writing application : mkvmerge v8.4.0 (‘A better way to fly’) 32bit
Writing library : libebml v1.3.1 + libmatroska v1.4.2
DURATION : 02:14:26.987000000
NUMBER_OF_FRAMES : 756280
NUMBER_OF_BYTES : 2063131840
_STATISTICS_WRITING_APP : mkvmerge v8.4.0 (‘A better way to fly’) 32bit
_STATISTICS_WRITING_DATE_UT : 2015-10-31 00:01:57
_STATISTICS_TAGS : BPS DURATION NUMBER_OF_FRAMES NUMBER_OF_BYTES

Video
ID : 1
Format : AVC
Format/Info : Advanced Video Codec
Format profile : [email protected]
Format settings, CABAC : Yes
Format settings, ReFrames : 4 frames
Codec ID : V_MPEG4/ISO/AVC
Duration : 2h 14mn
Bit rate : 5 408 Kbps
Width : 1 280 pixels
Height : 544 pixels
Display aspect ratio : 2.35:1
Frame rate mode : Constant
Frame rate : 23.976 fps
Color space : YUV
Chroma subsampling : 4:2:0
Bit depth : 8 bits
Scan type : Progressive
Bits/(Pixel*Frame) : 0.324
Stream size : 4.95 GiB (71%)
Writing library : x264 core 112
Encoding settings : cabac=1 / ref=3 / deblock=1:0:0 / analyse=0x3:0x113 / me=hex / subme=7 / psy=1 / psy_rd=1.00:0.00 / mixed_ref=1 / me_range=16 / chroma_me=1 / trellis=1 / 8x8dct=1 / cqm=0 / deadzone=21,11 / fast_pskip=1 / chroma_qp_offset=-2 / threads=6 / sliced_threads=0 / nr=0 / decimate=1 / interlaced=0 / constrained_intra=0 / bframes=3 / b_pyramid=2 / b_adapt=1 / b_bias=0 / direct=1 / weightb=1 / open_gop=0 / weightp=2 / keyint=240 / keyint_min=23 / scenecut=40 / intra_refresh=0 / rc_lookahead=40 / rc=abr / mbtree=1 / bitrate=5408 / ratetol=1.0 / qcomp=0.60 / qpmin=3 / qpmax=51 / qpstep=4 / ip_ratio=1.40 / aq=1:1.00
Language : English
Default : Yes
Forced : No
Color range : Limited
Color primaries : BT.709
Transfer characteristics : BT.709
Matrix coefficients : BT.709

Audio
ID : 2
Format : DTS
Format/Info : Digital Theater Systems
Format profile : HRA / Core
Mode : 16
Format settings, Endianness : Big
Codec ID : A_DTS
Duration : 2h 14mn
Bit rate mode : Constant
Bit rate : 2 046 Kbps / 1 509 Kbps
Channel(s) : 6 channels
Channel positions : Front: L C R, Side: L R, LFE
Sampling rate : 48.0 KHz
Bit depth : 16 bits
Compression mode : Lossy
Stream size : 1.92 GiB (27%)
Language : French
Default : No
Forced : No