Telecharger Kramer contre Kramer [DVDRiP] French

Qualité BLURAY 720p | MULTiLANGUES | son DTS

Kramer contre Kramer

Kramer contre Kramer

Origine du film : Américain
Réalisateur : Robert Benton
Acteurs : Dustin Hoffman, Meryl Streep, Justin Henry
Genre : Drame
Durée : 1h45min
Date de sortie : 7 février 1980
Année de production : 1978
Titre Original : Kramer vs. Kramer
Note spectateurs : Kramer contre Kramer

; »>3,7/5 (2 111)
Bande annonce :

9b9fe58c73aa8a386023a1675c06fad5

19416141″>Cliquez-ici pour voir la bande annonce 9b9fe58c73aa8a386023a1675c06fad5″> 19416141

9b9fe58c73aa8a386023a1675c06fad5

Kramer contre Kramer

Exaspérée par les priorités professionnelles de son mari, Joanna Kramer quitte son mari Ted et leur fils Billy. Le père doit alors concilier l’éducation de son fils et son travail de publicitaire mais parvient à tisser une relation très forte avec Billy. Quelques mois plus tard, Joanna est de retour et entame une procédure judiciaire pour obtenir la garde de l’enfant.
102112″ style= »display:inline; »>

Kramer contre Kramer

Format : MKV
Découpé avec : Winrar

Kramer contre Kramer

Kramer.vs.Kramer.1979.MULTi.720p.BluRayx264.DTS-GAIA

(6678 Mo)

[Liens Interchangeables entre hébergeurs: 6x 1000 Mo + 1x 678 Mo]

Uptobox
Télécharger

Uplea
Télécharger

1fichier
Télécharger

Uploaded
Télécharger

Rapidgator
Télécharger

TurboBit
Télécharger

[ Liens Premium ]

Uptobox
Télécharger

Uplea
Télécharger

1fichier
Télécharger

Uploaded
Télécharger

TurboBit
Télécharger

NFO :

Afficher / Masquer le texte 8ad9a824421e526956c13cb146c6e610″ class= »text_spoiler » style= »display:none; »>Kramer.vs.Kramer.1979.MULTi.720p.BluRayx264.DTS-GAIA.zone-telechargement.com.mkv
Format : Matroska
Format version : Version 1
File size : 6.52 GiB
Duration : 1h 44mn
Overall bit rate : 8 909 Kbps
Encoded date : UTC 2009-02-21 13:20:14
Writing application : mkvmerge v2.4.2 (‘Oh My God’) built on Jan 18 2009 17:30:28
Writing library : libebml v0.7.7 + libmatroska v0.8.1

Video
ID : 1
Format : AVC
Format/Info : Advanced Video Codec
Format profile : [email protected]
Format settings, CABAC : Yes
Format settings, ReFrames : 6 frames
Codec ID : V_MPEG4/ISO/AVC
Duration : 1h 44mn
Bit rate : 5 886 Kbps
Width : 1 280 pixels
Height : 720 pixels
Display aspect ratio : 16:9
Frame rate mode : Constant
Frame rate : 23.976 fps
Color space : YUV
Chroma subsampling : 4:2:0
Bit depth : 8 bits
Scan type : Progressive
Bits/(Pixel*Frame) : 0.266
Stream size : 4.18 GiB (64%)
Title : x264 720p
Writing library : x264 core 66 r1113M cc4f807
Encoding settings : cabac=1 / ref=6 / deblock=1:-3:-3 / analyse=0x3:0x113 / me=umh / subme=9 / psy_rd=0.9:0.0 / mixed_ref=1 / me_range=24 / chroma_me=1 / trellis=2 / 8x8dct=1 / cqm=0 / deadzone=21,11 / chroma_qp_offset=-2 / threads=3 / nr=0 / decimate=1 / mbaff=0 / bframes=5 / b_pyramid=1 / b_adapt=2 / b_bias=0 / direct=3 / wpredb=1 / keyint=250 / keyint_min=25 / scenecut=40(pre) / rc=2pass / bitrate=5886 / ratetol=1.0 / qcomp=0.60 / qpmin=10 / qpmax=51 / qpstep=4 / cplxblur=20.0 / qblur=0.5 / vbv_maxrate=50000 / vbv_bufsize=50000 / ip_ratio=1.40 / pb_ratio=1.30 / aq=1:0.80
Language : French
Default : Yes
Forced : No

Audio #1
ID : 2
Format : DTS
Format/Info : Digital Theater Systems
Mode : 16
Format settings, Endianness : Big
Codec ID : A_DTS
Duration : 1h 44mn
Bit rate mode : Constant
Bit rate : 1 510 Kbps
Channel count : 6 channels
Channel positions : Front: L C R, Side: L R, LFE
Sampling rate : 48.0 KHz
Bit depth : 24 bits
Compression mode : Lossy
Stream size : 1.11 GiB (17%)
Title : DTS 5.1
Language : French
Default : Yes
Forced : No

Audio #2
ID : 3
Format : DTS
Format/Info : Digital Theater Systems
Mode : 16
Format settings, Endianness : Big
Codec ID : A_DTS
Duration : 1h 44mn
Bit rate mode : Constant
Bit rate : 1 510 Kbps
Channel count : 6 channels
Channel positions : Front: L C R, Side: L R, LFE
Sampling rate : 48.0 KHz
Bit depth : 24 bits
Compression mode : Lossy
Stream size : 1.11 GiB (17%)
Title : DTS 5.1
Language : English
Default : No
Forced : No

Text
ID : 4
Format : UTF-8
Codec ID : S_TEXT/UTF8
Codec ID/Info : UTF-8 Plain Text
Title : Srt
Language : French
Default : No
Forced : No

Jeux Gratuit
15354131_1854970838071206_1069261547_o.png