Telecharger Kung Fu Jungle [BLURAY 720p] French

(TRUEFRENCH = Vraie voix française)

Qualité BLURAY 720p | MULTiLANGUES (Avec TRUEFRENCH)

Kung Fu Jungle

Kung Fu Jungle

Kung Fu Jungle

Origine du film : Chinois, Hong-kongais
Réalisateur : Teddy Chan
Acteurs : Donnie Yen, Wang Baoqiang, Charlie Yeung
Genre : Action, Thriller
Durée : 1h40min
Année de production : 2014
Titre Original : Yi ge ren de wu lin
Note spectateurs : Kung Fu Jungle

; »>3,2/5 (24)
Bande annonce :

b82548d20e6fecf92b1e882389e09b49

19546972″>Cliquez-ici pour voir la bande annonce b82548d20e6fecf92b1e882389e09b49″> 19546972

b82548d20e6fecf92b1e882389e09b49

Kung Fu Jungle

Un tueur nommé Feng parcourt Hong Kong pour assassiner les plus grands experts en arts martiaux, laissant derrière lui une arme secrète nommée Moonshadow en guise de carte de visite. Quand le détenu et expert en kung-fu Xia en entend parler, il propose à la police dattraper le tueur en échange de sa liberté
91902″ style= »display:inline; »>

Kung Fu Jungle

Format : MKV
Découpé avec : Winrar

Kung Fu Jungle

Kung Fu Killer.Multi.720P.BluRay.Welder

(4829 Mo)

[Liens Interchangeables entre hébergeurs: 4x 1000 Mo + 1x 829 Mo]

Uptobox
Télécharger

Uplea
Télécharger

1fichier
Télécharger

Uploaded
Télécharger

Rapidgator
Télécharger

TurboBit
Télécharger

[ 1 lien Premium ]

Uptobox
Télécharger

Uplea
Télécharger

1fichier
Télécharger

Uploaded
Télécharger

TurboBit
Télécharger

NFO :

Afficher / Masquer le texte bc84be494d5ece882786ee71f370edd8″ class= »text_spoiler » style= »display:none; »>General
Complete name : Kung Fu Killer.Multi.720P.BluRay.Welder.mkv
Format : Matroska
Format version : Version 2
File size : 4.72 GiB
Duration : 1h 40mn
Overall bit rate : 6 739 Kbps
Movie name : Kung Fu Killer.Multi.720P.BluRay.Welder.mkv
Encoded date : UTC 2015-07-21 23:10:11

Video
ID : 1
Format : AVC
Format/Info : Advanced Video Codec
Format profile : [email protected]
Format settings, CABAC : Yes
Format settings, ReFrames : 2 frames
Codec ID : V_MPEG4/ISO/AVC
Duration : 1h 40mn
Bit rate : 5 500 Kbps
Width : 1 280 pixels
Height : 544 pixels
Display aspect ratio : 2.35:1
Frame rate mode : Constant
Frame rate : 24.000 fps
Color space : YUV
Chroma subsampling : 4:2:0
Bit depth : 8 bits
Scan type : Progressive
Bits/(Pixel*Frame) : 0.329
Stream size : 3.73 GiB (79%)
Writing library : x264 core 142
Default : Yes
Forced : No
Color range : Limited
Color primaries : BT.709
Transfer characteristics : BT.709
Matrix coefficients : BT.709

Audio #1
ID : 2
Format : AC-3
Format/Info : Audio Coding 3
Mode extension : CM (complete main)
Format settings, Endianness : Big
Codec ID : A_AC3
Duration : 1h 40mn
Bit rate mode : Constant
Bit rate : 640 Kbps
Channel(s) : 6 channels
Channel positions : Front: L C R, Side: L R, LFE
Sampling rate : 48.0 KHz
Compression mode : Lossy
Stream size : 459 MiB (9%)
Language : French
Default : Yes
Forced : No

Audio #2
ID : 3
Format : AC-3
Format/Info : Audio Coding 3
Mode extension : CM (complete main)
Format settings, Endianness : Big
Codec ID : A_AC3
Duration : 1h 40mn
Bit rate mode : Constant
Bit rate : 640 Kbps
Channel(s) : 6 channels
Channel positions : Front: L C R, Side: L R, LFE
Sampling rate : 48.0 KHz
Compression mode : Lossy
Stream size : 459 MiB (9%)
Language : English
Default : No
Forced : No

Text
ID : 4
Format : PGS
Codec ID : S_HDMV/PGS
Codec ID/Info : Picture based subtitle format used on BDs/HD-DVDs
Language : French
Default : No
Forced : No