Telecharger La 5ème vague [BLURAY 720p]

(TRUEFRENCH = Vraie voix française)
Qualité BLURAY 720p | MULTiLANGUES (Avec TRUEFRENCH) | son DTS
Capture
Origine du film : Américain
Réalisateur : J Blakeson
Acteurs : Chloë Grace Moretz, Nick Robinson, Alex Roe
Genre : Science fiction, Aventure
Durée : 1h 52min
Date de sortie : 27 janvier 2016
Année de production : 2016
Titre Original : The 5th Wave
Distribué par : Sony Pictures Releasing France
Note presse : 2,3/5
Note spectateurs :

2,9/5(3305)

 

Quatre vagues d’attaques, chacune plus mortelle que la précédente, ont décimé la presque totalité de la Terre. Terrifiée, se méfiant de tout, Cassie est en fuite et tente désespérément de sauver son jeune frère. Alors qu’elle se prépare à affronter la cinquième vague, aussi inévitable que fatale, elle va faire équipe avec un jeune homme qui pourrait bien représenter son dernier espoir – si toutefois elle peut lui faire confiance…
news-id-137092″ style= »display:inline; »>

Format : x264

The.5th.Wave.2016.MULTi.720p.BluRay.DTS.x264-KLI (7361 Mo)

[Liens Interchangeables entre hébergeurs: 7x 1000 Mo + 1x 361 Mo]

Uptobox
Télécharger

Uplea
Télécharger

1fichier
Télécharger

Uploaded
Télécharger

Rapidgator
Télécharger

TurboBit
Télécharger

1 Lien Premium – 7.2 Go

Uptobox Premium
Télécharger

Uplea Premium
Télécharger

1fichier Premium
Télécharger

Uploaded Premium
Télécharger

TurboBit Premium
Télécharger

 

NFO :

13ec978557973cf9a5da23fc8d0fe397″ class= »text_spoiler » style= »display:none; »>

The.5th.Wave.2016.MULTi.720p.BluRay.DTS.x264-KLI
Format : Matroska
Format version : Version 4 / Version 2
File size : 7.19 GiB
Duration : 1h 52mn
Overall bit rate : 9 159 Kbps
Movie name : The 5th Wave 2016 MULTi 720p BluRay DTS Encode By [email protected]
Encoded date : UTC 2016-06-02 00:42:06
Writing application : mkvmerge v7.8.0 ('River Man') 64bit built on Mar 28 2015 07:20:28
Writing library : libebml v1.3.1 + libmatroska v1.4.2

Video
ID : 1
Format : AVC
Format/Info : Advanced Video Codec
Format profile : [email protected]
Format settings, CABAC : Yes
Format settings, ReFrames : 12 frames
Codec ID : V_MPEG4/ISO/AVC
Duration : 1h 52mn
Bit rate : 6 125 Kbps
Width : 1 280 pixels
Height : 536 pixels
Display aspect ratio : 2.40:1
Frame rate mode : Constant
Frame rate : 23.976 (24000/1001) fps
Color space : YUV
Chroma subsampling : 4:2:0
Bit depth : 8 bits
Scan type : Progressive
Bits/(Pixel*Frame) : 0.372
Stream size : 4.68 GiB (65%)
Title : The 5th Wave 2016 MULTi 720p BluRay DTS Encode By [email protected]
Writing library : x264 core 146
Encoding settings : cabac=1 / ref=12 / deblock=1:-3:-3 / analyse=0x3:0x133 / me=umh / subme=9 / psy=1 / psy_rd=1,00:0,20 / mixed_ref=1 / me_range=64 / chroma_me=1 / trellis=1 / 8x8dct=1 / cqm=0 / deadzone=21,11 / fast_pskip=0 / chroma_qp_offset=-3 / threads=16 / lookahead_threads=2 / sliced_threads=0 / nr=0 / decimate=1 / interlaced=0 / bluray_compat=0 / constrained_intra=0 / bframes=8 / b_pyramid=2 / b_adapt=2 / b_bias=0 / direct=3 / weightb=1 / open_gop=0 / weightp=2 / keyint=240 / keyint_min=24 / scenecut=40 / intra_refresh=0 / rc_lookahead=240 / rc=2pass / mbtree=1 / bitrate=6125 / ratetol=1,0 / qcomp=0,60 / qpmin=0 / qpmax=69 / qpstep=4 / cplxblur=20,0 / qblur=0,5 / vbv_maxrate=50000 / vbv_bufsize=55000 / nal_hrd=none / filler=0 / ip_ratio=1,40 / aq=2:0,70
Language : English
Default : Yes
Forced : No
Color range : Limited
Color primaries : BT.709
Transfer characteristics : BT.709
Matrix coefficients : BT.709

Audio #1
ID : 2
Format : DTS
Format/Info : Digital Theater Systems
Mode : 16
Format settings, Endianness : Big
Codec ID : A_DTS
Duration : 1h 52mn
Bit rate mode : Constant
Bit rate : 1 509 Kbps
Channel(s) : 6 channels
Channel positions : Front: L C R, Side: L R, LFE
Sampling rate : 48.0 KHz
Frame rate : 93.750 fps (512 spf)
Bit depth : 16 bits
Compression mode : Lossy
Stream size : 1.18 GiB (16%)
Title : DTS VO 5.1
Language : English
Default : No
Forced : No

Audio #2
ID : 3
Format : DTS
Format/Info : Digital Theater Systems
Mode : 16
Format settings, Endianness : Big
Codec ID : A_DTS
Duration : 1h 52mn
Bit rate mode : Constant
Bit rate : 1 509 Kbps
Channel(s) : 6 channels
Channel positions : Front: L C R, Side: L R, LFE
Sampling rate : 48.0 KHz
Frame rate : 93.750 fps (512 spf)
Bit depth : 16 bits
Compression mode : Lossy
Stream size : 1.18 GiB (16%)
Title : DTS VFF 5.1
Language : French
Default : Yes
Forced : No

Text #1
ID : 4
Format : UTF-8
Codec ID : S_TEXT/UTF8
Codec ID/Info : UTF-8 Plain Text
Title : SRT Full
Language : French
Default : No
Forced : No

Text #2
ID : 5
Format : UTF-8
Codec ID : S_TEXT/UTF8
Codec ID/Info : UTF-8 Plain Text
Title : SRT Forced
Language : French
Default : Yes
Forced : No

Text #3
ID : 6
Format : PGS
Muxing mode : zlib
Codec ID : S_HDMV/PGS
Codec ID/Info : Picture based subtitle format used on BDs/HD-DVDs
Title : PGS Full
Language : French
Default : No
Forced : No

Text #4
ID : 7
Format : PGS
Muxing mode : zlib
Codec ID : S_HDMV/PGS
Codec ID/Info : Picture based subtitle format used on BDs/HD-DVDs
Title : PGS Forced
Language : French
Default : No
Forced : No

Text #5
ID : 8
Format : PGS
Muxing mode : zlib
Codec ID : S_HDMV/PGS
Codec ID/Info : Picture based subtitle format used on BDs/HD-DVDs
Title : PGS Full
Language : English
Default : No
Forced : No

Menu
00:00:00.000 : :Chapter 1
00:03:48.686 : :Chapter 2
00:09:05.962 : :Chapter 3
00:16:01.460 : :Chapter 4
00:20:46.161 : :Chapter 5
00:28:43.555 : :Chapter 6
00:37:42.093 : :Chapter 7
00:45:51.081 : :Chapter 8
00:54:19.840 : :Chapter 9
00:59:47.834 : :Chapter 10
01:06:01.874 : :Chapter 11
01:13:06.256 : :Chapter 12
01:18:12.813 : :Chapter 13
01:25:02.138 : :Chapter 14
01:32:21.285 : :Chapter 15
01:43:07.556 : :Chapter 16