Telecharger La Belle et la bête [DVDRiP] French

Qualité BLURAY 1080p | FRENCH

La Belle et la bête

La Belle et la bête

Origine du film : Luxembourgeois, Français
Réalisateur : Jean Cocteau
Acteurs : Josette Day, Jean Marais, Marcel André
Genre : Fantastique, Drame
Durée : 1h36min
Date de sortie : 29 octobre 1946
Année de production : 1946
Distribué par : SND
Note presse : La Belle et la bête 5,0/5
Note spectateurs : La Belle et la bête

; »>4/5 (2 721)
Bande annonce :

a74a71e99b20100dba7659d8daf718e8

19537834″>Cliquez-ici pour voir la bande annonce a74a71e99b20100dba7659d8daf718e8″> 19537834

a74a71e99b20100dba7659d8daf718e8

La Belle et la bête

Pour l’offrir à sa fille, le père de la Belle cueille, sans le savoir, une rose appartenant au jardin de la Bête, qui s’en offense. Afin de sauver son père, la Belle accepte de partir vivre au château de la Bête.
99379″ style= »display:inline; »>

La Belle et la bête

Format : MKV
Découpé avec : Winrar

La Belle et la bête

La.Belle.Et.La.Bete.1946.FRENCH.1080p.BluRay.x264-NOTAG

(6715 Mo)

[Liens Interchangeables entre hébergeurs: 6x 1000 Mo + 1x 715 Mo]

Uptobox
Télécharger

Uplea
Télécharger

1fichier
Télécharger

Uploaded
Télécharger

Rapidgator
Télécharger

TurboBit
Télécharger

[ Liens Premium ]

Uptobox
Télécharger

Uplea
Télécharger

1fichier
Télécharger

Uploaded
Télécharger

TurboBit
Télécharger

NFO :

Afficher / Masquer le texte 58d3c270499eaaa8a17753b9b1e3f207″ class= »text_spoiler » style= »display:none; »>La.Belle.Et.La.Bete.1946.FRENCH.1080p.BluRay.x264-NOTAG.zone-telechargement.com.mkv
Format : Matroska
Format version : Version 4 / Version 2
File size : 6.56 GiB
Duration : 1h 33mn
Overall bit rate : 9 997 Kbps
Encoded date : UTC 2015-10-01 17:06:52
Writing application : mkvmerge v7.4.0 (‘Circles’) 64bit built on Dec 12 2014 12:19:56
Writing library : libebml v1.3.0 + libmatroska v1.4.1
DURATION : 01:33:55.072000000
NUMBER_OF_FRAMES : 176096
NUMBER_OF_BYTES : 450805760
_STATISTICS_WRITING_APP : mkvmerge v7.4.0 (‘Circles’) 64bit built on Dec 12 2014 12:19:56
_STATISTICS_WRITING_DATE_UTC : 2015-10-01 17:06:52
_STATISTICS_TAGS : BPS DURATION NUMBER_OF_FRAMES NUMBER_OF_BYTES

Video
ID : 1
Format : AVC
Format/Info : Advanced Video Codec
Format profile : [email protected]
Format settings, CABAC : Yes
Format settings, ReFrames : 4 frames
Codec ID : V_MPEG4/ISO/AVC
Duration : 1h 33mn
Bit rate : 9 356 Kbps
Width : 1 440 pixels
Height : 1 080 pixels
Display aspect ratio : 4:3
Frame rate mode : Constant
Frame rate : 23.976 fps
Color space : YUV
Chroma subsampling : 4:2:0
Bit depth : 8 bits
Scan type : Progressive
Bits/(Pixel*Frame) : 0.251
Stream size : 6.01 GiB (92%)
Writing library : x264 core 119 r2106 07efeb4
Encoding settings : cabac=1 / ref=4 / deblock=1:0:0 / analyse=0x3:0x133 / me=umh / subme=7 / psy=1 / psy_rd=1.00:0.00 / mixed_ref=1 / me_range=16 / chroma_me=1 / trellis=1 / 8x8dct=1 / cqm=0 / deadzone=21,11 / fast_pskip=0 / chroma_qp_offset=-2 / threads=12 / sliced_threads=0 / nr=0 / decimate=1 / interlaced=0 / bluray_compat=0 / constrained_intra=0 / bframes=3 / b_pyramid=2 / b_adapt=2 / b_bias=0 / direct=3 / weightb=1 / open_gop=0 / weightp=2 / keyint=250 / keyint_min=23 / scenecut=40 / intra_refresh=0 / rc_lookahead=50 / rc=2pass / mbtree=1 / bitrate=9356 / ratetol=1.0 / qcomp=0.60 / qpmin=0 / qpmax=69 / qpstep=4 / cplxblur=20.0 / qblur=0.5 / ip_ratio=1.40 / aq=1:1.00
Language : English
Default : Yes
Forced : No
DURATION : 01:33:55.014000000
NUMBER_OF_FRAMES : 135105
NUMBER_OF_BYTES : 6589531685
_STATISTICS_WRITING_APP : mkvmerge v7.4.0 (‘Circles’) 64bit built on Dec 12 2014 12:19:56
_STATISTICS_WRITING_DATE_UTC : 2015-10-01 17:06:52
_STATISTICS_TAGS : BPS DURATION NUMBER_OF_FRAMES NUMBER_OF_BYTES

Audio
ID : 2
Format : AC-3
Format/Info : Audio Coding 3
Mode extension : CM (complete main)
Format settings, Endianness : Big
Codec ID : A_AC3
Duration : 1h 33mn
Bit rate mode : Constant
Bit rate : 640 Kbps
Channel count : 1 channel
Channel positions : Front: C
Sampling rate : 48.0 KHz
Bit depth : 16 bits
Compression mode : Lossy
Stream size : 430 MiB (6%)
Title : French Audio
Language : French
Default : Yes
Forced : Yes

Jeux Gratuit
15354131_1854970838071206_1069261547_o.png