Telecharger La Conquête de la planète des singes [DVDRiP] French

Qualité BLURAY 720p | FRENCH | son DTS

La Conquête de la planète des singes

La Conquête de la planète des singes

Origine du film : Américain
Réalisateur : Jack Lee Thompson
Acteurs : Roddy McDowall, Don Murray, Natalie Trundy
Genre : Science fiction, Action
Durée : 1h28min
Année de production : 1972
Titre Original : Conquest of the Planet of the Apes
Note spectateurs : La Conquête de la planète des singes

; »>3/5 (502)
Bande annonce :

e62fd3c55099fc84927c4b842d54ef0e

19413458″>Cliquez-ici pour voir la bande annonce e62fd3c55099fc84927c4b842d54ef0e »> 19413458

e62fd3c55099fc84927c4b842d54ef0e

La Conquête de la planète des singes

En 1990, les animaux domestiques et le personnel de service ont disparu au profit des singes-esclaves. Mais ces derniers se révoltent et prennent le pouvoir, sous l’impulsion de Caesar, le fils de Cornélius et Zira…
99278″ style= »display:inline; »>

La Conquête de la planète des singes

Format : MKV
Découpé avec : Winrar

La Conquête de la planète des singes

Conquest.Of.The.Planet.Of.The.Apes.1972.EXTENDED.FRENCH.720p.BluRay.x264-St4f

(4477 Mo)

[Liens Interchangeables entre hébergeurs: 4x 1000 Mo + 1x 477 Mo]

Uptobox
Télécharger

Uplea
Télécharger

1fichier
Télécharger

Uploaded
Télécharger

Rapidgator
Télécharger

TurboBit
Télécharger

[ Liens Premium ]

Uptobox
Télécharger

Uplea
Télécharger

1fichier
Télécharger

Uploaded
Télécharger

TurboBit
Télécharger

NFO :

Afficher / Masquer le texte 59e2ac24db1bce65e38de802686233c1″ class= »text_spoiler » style= »display:none; »>Conquest.Of.The.Planet.Of.The.Apes.1972.EXTENDED.FRENCH.720p.BluRay.x264-St4f.zone-telechargement.com.mkv
Format : Matroska
Format version : Version 4 / Version 2
File size : 4.37 GiB
Duration : 1h 27mn
Overall bit rate : 7 165 Kbps
Encoded date : UTC 2014-12-09 17:15:17
Writing application : mkvmerge v7.3.0 (‘Nouages’) 64bit built on Oct 22 2014 18:53:34
Writing library : libebml v1.3.0 + libmatroska v1.4.1
DURATION : 00:56:15.209000000
NUMBER_OF_FRAMES : 7
NUMBER_OF_BYTES : 171
_STATISTICS_WRITING_APP : mkvmerge v7.3.0 (‘Nouages’) 64bit built on Oct 22 2014 18:53:34
_STATISTICS_WRITING_DATE_UT : 2014-12-09 17:15:17
_STATISTICS_TAGS : BPS DURATION NUMBER_OF_FRAMES NUMBER_OF_BYTES

Video
ID : 1
Format : AVC
Format/Info : Advanced Video Codec
Format profile : [email protected]
Format settings, CABAC : Yes
Format settings, ReFrames : 8 frames
Codec ID : V_MPEG4/ISO/AVC
Duration : 1h 27mn
Bit rate : 6 396 Kbps
Width : 1 280 pixels
Height : 544 pixels
Display aspect ratio : 2.35:1
Frame rate mode : Constant
Frame rate : 23.976 fps
Color space : YUV
Chroma subsampling : 4:2:0
Bit depth : 8 bits
Scan type : Progressive
Bits/(Pixel*Frame) : 0.383
Stream size : 3.82 GiB (87%)
Writing library : x264 core 142 r2431 ac76440
Encoding settings : cabac=1 / ref=8 / deblock=1:-1:-1 / analyse=0x3:0x133 / me=umh / subme=9 / psy=1 / psy_rd=1.00:0.15 / mixed_ref=1 / me_range=32 / chroma_me=1 / trellis=2 / 8x8dct=1 / cqm=0 / deadzone=21,11 / fast_pskip=1 / chroma_qp_offset=-3 / threads=3 / lookahead_threads=1 / sliced_threads=0 / nr=0 / decimate=1 / interlaced=0 / bluray_compat=0 / constrained_intra=0 / bframes=3 / b_pyramid=2 / b_adapt=2 / b_bias=0 / direct=3 / weightb=1 / open_gop=0 / weightp=2 / keyint=240 / keyint_min=23 / scenecut=40 / intra_refresh=0 / rc_lookahead=60 / rc=2pass / mbtree=1 / bitrate=6396 / ratetol=1.0 / qcomp=0.60 / qpmin=0 / qpmax=69 / qpstep=4 / cplxblur=20.0 / qblur=0.5 / vbv_maxrate=62500 / vbv_bufsize=78125 / nal_hrd=none / filler=0 / ip_ratio=1.40 / aq=1:1.00
Language : English
Default : Yes
Forced : No
DURATION : 01:27:22.654000000
NUMBER_OF_FRAMES : 125698
NUMBER_OF_BYTES : 4190533694
_STATISTICS_WRITING_APP : mkvmerge v7.3.0 (‘Nouages’) 64bit built on Oct 22 2014 18:53:34
_STATISTICS_WRITING_DATE_UT : 2014-12-09 17:15:17
_STATISTICS_TAGS : BPS DURATION NUMBER_OF_FRAMES NUMBER_OF_BYTES

Audio
ID : 2
Format : DTS
Format/Info : Digital Theater Systems
Mode : 16
Format settings, Endianness : Big
Codec ID : A_DTS
Duration : 1h 27mn
Bit rate mode : Constant
Bit rate : 768 Kbps
Channel(s) : 6 channels
Channel positions : Front: L C R, Side: L R, LFE
Sampling rate : 48.0 KHz
Bit depth : 24 bits
Compression mode : Lossy
Stream size : 480 MiB (11%)
Title : French
Language : French
Default : Yes
Forced : No

Text
ID : 3
Format : UTF-8
Codec ID : S_TEXT/UTF8
Codec ID/Info : UTF-8 Plain Text
Title : French forced
Language : French
Default : Yes
Forced : No

Jeux Gratuit
15354131_1854970838071206_1069261547_o.png