Telecharger La Femme modèle [DVDRiP] French

(TRUEFRENCH = Vraie voix française)

Qualité DVDRiP | TRUEFRENCH

La Femme modèle

La Femme modèle

Origine du film : Américain
Réalisateur : Vincente Minnelli
Acteurs : Gregory Peck, Lauren Bacall, Dolores Gray
Genre : Comédie
Durée : 1h58min
Année de production : 1957
Titre Original : Designing Woman
Note spectateurs : La Femme modèle

; »>3,6/5 (93)
Bande annonce :

a4b56f9bb74a126d4d4f84bedae922d3

19465717″>Cliquez-ici pour voir la bande annonce a4b56f9bb74a126d4d4f84bedae922d3″> 19465717

a4b56f9bb74a126d4d4f84bedae922d3

La Femme modèle

Un journaliste sportif écrit une série d’articles compromettant le milieu de la boxe. Menacé, il est obligé de s’enfuir. La mafia décide alors de kidnapper sa femme.
89879″ style= »display:inline; »>

La Femme modèle

Format : XviD

La Femme modèle

La femme modèle 1957 FRENCH.DVDRiP.XViD.AC3-HuSh

(1360 Mo)

Uptobox
Télécharger

Uploaded
Télécharger

TurboBit
Télécharger

Rapidgator
Télécharger

Uplea
Télécharger

1fichier
Télécharger

NFO :

Afficher / Masquer le texte 9111028c58ad08620996c889b76519ea » class= »text_spoiler » style= »display:none; »>■General

Complete name : G:TorrentLa.Femme.Modele.1957.FRENCH.DVDRiP.XViD.AC3-HuShLa.Femme.Modele.1957.FRENCH.DVDRiP.XViD.AC3-HuSh.avi

Format : AVI

Format/Info : Audio Video Interleave

File size : 1.36 GiB

Duration : 1h 57mn

Overall bit rate : 1 656 Kbps

Movie name : TOUT HUSH SUR team-hush.org

Video

ID : 0

Format : MPEG-4 Visual

Format profile : Advanced [email protected]

Format settings, BVOP : 1

Format settings, QPel : No

Format settings, GMC : No warppoints

Format settings, Matrix : Default (MPEG)

Muxing mode : Packed bitstream

Codec ID : XVID

Codec ID/Hint : XviD

Duration : 1h 57mn

Bit rate : 1 454 Kbps

Width : 688 pixels

Height : 288 pixels

Display aspect ratio : 2.40:1

Frame rate : 23.976 fps

Color space : YUV

Chroma subsampling : 4:2:0

Bit depth : 8 bits

Scan type : Progressive

Compression mode : Lossy

Bits/(Pixel*Frame) : 0.306

Stream size : 1.20 GiB (88%)

Writing library : XviD 1.2.1 (UTC 2008-12-04)

Audio

ID : 1

Format : AC-3

Format/Info : Audio Coding 3

Mode extension : CM (complete main)

Format settings, Endianness : Big

Codec ID : 2000

Duration : 1h 57mn

Bit rate mode : Constant

Bit rate : 192 Kbps

Channel(s) : 1 channel

Channel positions : Front: C

Sampling rate : 48.0 KHz

Compression mode : Lossy

Stream size : 162 MiB (12%)

Alignment : Split accross interleaves

Interleave, duration : 42 ms (1.00 video frame)

Interleave, preload duratio : 500 ms

Language : Undefined

Jeux Gratuit
15354131_1854970838071206_1069261547_o.png