Télécharger La Folie Almayer French

Qualité DVDRiP | FRENCH | AC3

La Folie Almayer

La Folie Almayer

La Folie Almayer

Origine du film : Français, belge
Réalisateur : Chantal Akerman
Acteurs : Stanislas Merhar, Aurora Marion, Marc Barbé
Genre : Drame
Durée : 2h 7min
Date de sortie : 25 janvier 2012
Année de production : 2009
Distribué par : Shellac Distribution
Note presse : La Folie Almayer 3,5/5
Note spectateurs : La Folie Almayer 2,4/5 (48)
Bande annonce :

b814e225f6b78018c2fbea7517105bcf

19266416″>Cliquez-ici pour voir la bande annonce b814e225f6b78018c2fbea7517105bcf »> 19266416

b814e225f6b78018c2fbea7517105bcf

La Folie Almayer

Quelque part en Asie du Sud-Est, au bord d’un fleuve tumultueux, un Européen s’accroche à ses rêves de fortune par amour pour sa fille. Une histoire de passion, de perdition et de folie, adaptée du roman de Joseph Conrad.

Nom de la release : La.folie.Almayer.2012.FRENCH.DVDRiP.XViD.AC3-LOLOTE 24439″ style= »display:inline; »>

Qualité : DVDRiP
Format : XviD
Langue : Français
Nombre de fichiers : 2 Fichiers
Taille des fichiers : 1000 Mo 792 Mo
Taille totale : 1792 Mo

Ps: Les liens sont interchangeables, prenez une partie de chaque hébergeur pour télécharger plusieurs fichiers en même temps. smile

1fichier.com
Partie 1
Partie 2

Uptobox.com
Partie 1
Partie 2

Free
Partie 1
Partie 2

Uploaded.net
Partie 1
Partie 2

Rapidgator.net
Partie 1
Partie 2

TurboBit.net
Partie 1
Partie 2

NFO :

Afficher / Masquer le texte e76f20668ec80da5ddb880530fd458f0″ class= »text_spoiler » style= »display:none; »>====||||==La.folie.Almayer.2012.FRENCH.DVDRiP.XViD.AC3-LOLOTE==|||||====
&lt;&lt;< &gt;&gt;&gt;&gt;
Format : AVI
Format/Info : Audio Video Interleave
File size : 1.75 GiB
Duration : 2h 1mn
Overall bit rate : 2 055 Kbps
Encoded by : LOLOTE
Mastered date : 10_04_2013
Writing application : MAGICAL 7.7.4

Video
ID : 0
Format : MPEG-4 Visual
Format profile : Advanced [email protected]
Format settings, BVOP : Yes
Format settings, QPel : No
Format settings, GMC : No warppoints
Format settings, Matrix : Default (H.263)
Codec ID : XVID
Codec ID/Hint : XviD
Duration : 2h 1mn
Bit rate : 1 598 Kbps
Width : 720 pixels
Height : 390 pixels
Display aspect ratio : 16:9
Frame rate : 25.000 fps
Color space : YUV
Chroma subsampling : 4:2:0
Bit depth : 8 bits
Scan type : Progressive
Bits/(Pixel*Frame) : 0.228
Stream size : 1.36 GiB (78%)
Writing library : XviD 1.2.1 (UTC 2008-12-04)

Audio
ID : 1
Format : AC-3
Format/Info : Audio Coding 3
Mode extension : CM (complete main)
Codec ID : 2000
Duration : 2h 1mn
Bit rate mode : Constant
Bit rate : 448 Kbps
Channel(s) : 6 channels
Channel positions : Front: L C R, Side: L R, LFE
Sampling rate : 48.0 KHz
Bit depth : 16 bits
Stream size : 390 MiB (22%)
Alignment : Aligned on interleaves
Interleave, duration : 40 ms (1.00 video frame)
Language : French

Jeux Gratuit
15354131_1854970838071206_1069261547_o.png