Télécharger La Gloire de mon Père Blu-Ray 1080p/720p FRENCH

(TRUEFRENCH = Vraie voix française)

Qualité BLURAY 720p | TRUEFRENCH | son DTS

La Gloire de mon Père

La Gloire de mon Père

Origine du film : Français
Réalisateur : Yves Robert
Acteurs : Julien Ciamaca, Philippe Caubère, Nathalie Roussel
Genre : Comédie dramatique, Aventure
Durée : 1h45min
Date de sortie : 29 août 1990
Année de production : 1990
Note spectateurs : La Gloire de mon Père 3,6/5 (6 882)
Bande annonce :

3bc1ad4aa1a4a39776b946df4ec2d165

19458215″>Cliquez-ici pour voir la bande annonce 3bc1ad4aa1a4a39776b946df4ec2d165″> 19458215

3bc1ad4aa1a4a39776b946df4ec2d165

La Gloire de mon Père

Le jeune Marcel Pagnol part en Provence avec toute sa famille pour les vacances d’été. Enfant de la ville, c’est la découverte de la nature, des grands espaces et la fierté d’avoir un père grand chasseur. Des vacances qui marqueront à jamais ses souvenirs d’enfance.
96776″ style= »display:inline; »>

La Gloire de mon Père

Format : MKV
Découpé avec : Winrar

La Gloire de mon Père

La.Gloire.De.Mon.Pere.1990.FRENCH.720p.BluRay.x264-FHD

(6560 Mo)

[Liens Interchangeables entre hébergeurs: 6x 1000 Mo + 1x 560 Mo]

Uptobox
Télécharger

Uploaded
Télécharger

TurboBit
Télécharger

Uplea
Télécharger

1fichier
Télécharger

[Liens Premium ]

Uptobox
Télécharger

Uploaded
Télécharger

TurboBit
Télécharger

Uplea
Télécharger

1fichier
Télécharger

NFO :

Afficher / Masquer le texte 8170222ed0cc9b5e9eb1c6dfbffc2961″ class= »text_spoiler » style= »display:none; »>Video
ID : 1
Format : AVC
Format/Info : Advanced Video Codec
Format profile : [email protected]
Format settings, CABAC : Yes
Format settings, ReFrames : 5 frames
Codec ID : V_MPEG4/ISO/AVC
Duration : 1h 50mn
Bit rate : 6 971 Kbps
Width : 1 280 pixels
Height : 688 pixels
Display aspect ratio : 1.860
Frame rate : 24.000 fps
Color space : YUV
Chroma subsampling : 4:2:0
Bit depth : 8 bits
Scan type : Progressive
Bits/(Pixel*Frame) : 0.330
Stream size : 5.26 GiB (80%)
Title : Video
Writing library : x264 core 65 r1040M 1591275
Encoding settings : cabac=1 / ref=5 / deblock=1:0:0 / analyse=0x3:0x2 / me=hex / subme=7
/ psy_rd=1.0:0.0 / mixed_ref=1 / me_range=16 / chroma_me=1 / trellis=1 / 8x8dct=1 / cqm=0 / deadzone=21,11
/ chroma_qp_offset=-2 / threads=6 / nr=0 / decimate=1 / mbaff=0 / bframes=3 / b_pyramid=1 / b_adapt=1
/ b_bias=0 / direct=1 / wpredb=1 / keyint=250 / keyint_min=25 / scenecut=40(pre) / rc=2pass / bitrate=6971
/ ratetol=1.0 / qcomp=0.60 / qpmin=10 / qpmax=51 / qpstep=4 / cplxblur=20.0 / qblur=0.5 / ip_ratio=1.40
/ pb_ratio=1.30 / aq=1:1.00
Language : French

Audio
ID : 2
Format : DTS
Format/Info : Digital Theater Systems
Codec ID : A_DTS
Duration : 1h 50mn
Bit rate mode : Constant
Bit rate : 1 510 Kbps
Channel(s) : 6 channels
Channel positions : Front: L C R, Side: L R, LFE
Sampling rate : 48.0 KHz
Bit depth : 16 bits
Compression mode : Lossy
Stream size : 1.17 GiB (18%)
Title : French DTS
Language : French

488
-
0%
Votes : 1