Télécharger La Grande aventure de Maya l'abeille Blu-Ray 3D

Qualité BLURAY 3D TB | FRENCH

La Grande aventure de Maya l'abeille

La Grande aventure de Maya l'abeille

Origine du film : Allemand
Réalisateur : Alexs Stadermann
Acteurs : Beate Gerlach, Stefan Krause, Roland Hemmo
Genre : Animation, Aventure, Comédie
Durée : 1h25min
Date de sortie : 4 février 2015
Année de production : 2013
Titre Original : Maya the Bee – The Movie
Distribué par : La Belle Company
Note presse : La Grande aventure de Maya l'abeille 3,0/5
Note spectateurs : La Grande aventure de Maya l'abeille 3,7/5 (196)
Bande annonce :

75e7e285a7e11083fa53f2465665927b

19549958″>Cliquez-ici pour voir la bande annonce 75e7e285a7e11083fa53f2465665927b »> 19549958

75e7e285a7e11083fa53f2465665927b

La Grande aventure de Maya l'abeille

Dans l’univers bien ordonné des abeilles, la petite Maya a bien du mal à trouver sa place, et ses tentatives aussi drôles que maladroites pour s’intégrer lui attirent les foudres de la sévère Buzzlina, conseillère de la Reine. Accompagnée de Willy, son meilleur ami, Maya s’envole pour une aventure exaltante.
94188″ style= »display:inline; »>

La Grande aventure de Maya l'abeille

Format : MKV

La Grande aventure de Maya l'abeille

Maya.the.Bee.Movie.2015.3D.VFF.Top.Bottom.1080p.BluRay.x264.AC3.5.1-H72-3D

(6564 Mo)

[Liens Interchangeables entre hébergeurs: 6x 1000 Mo + 1x 564 Mo]

Uptobox
Télécharger

Uplea
Télécharger

1fichier
Télécharger

Uploaded
Télécharger

Rapidgator
Télécharger

TurboBit
Télécharger

1 Lien Premium – 6.4 Go

Uptobox
Télécharger

Uplea
Télécharger

1fichier
Télécharger

Uploaded
Télécharger

TurboBit
Télécharger

NFO :

Afficher / Masquer le texte b03bff1ccb588894bef7a15ba2cc7861″ class= »text_spoiler » style= »display:none; »>General
Unique ID : 207051588141556038703473011582731750424 (0x9BC4AF73FB11866CA6CEE8DD6EBB0C18)
Complete name : Maya.the.Bee.Movie.2015.3D.VFF.Top.Bottom.1080p.BluRay.x264.AC3.5.1-H72-3D
Format : Matroska
Format version : Version 4 / Version 2
File size : 6.41 GiB
Duration : 1h 27mn
Overall bit rate : 10.4 Mbps
Encoded date : UTC 2015-08-07 17:50:01
Writing application : mkvmerge v8.1.0 (‘Psychedelic Postcard’) 32bit
Writing library : libebml v1.3.1 + libmatroska v1.4.2
DURATION : 01:27:53.632000000
NUMBER_OF_FRAMES : 164801
NUMBER_OF_BYTES : 295323392
_STATISTICS_WRITING_APP : mkvmerge v8.1.0 (‘Psychedelic Postcard’) 32bit
_STATISTICS_WRITING_DATE_UT : 2015-08-07 17:50:01
_STATISTICS_TAGS : BPS DURATION NUMBER_OF_FRAMES NUMBER_OF_BYTES

Video
ID : 1
Format : AVC
Format/Info : Advanced Video Codec
Format profile : [email protected]
Format settings, CABAC : Yes
Format settings, ReFrames : 4 frames
Codec ID : V_MPEG4/ISO/AVC
Duration : 1h 27mn
Bit rate : 10 000 Kbps
Width : 1 920 pixels
Height : 1 080 pixels
Display aspect ratio : 16:9
Frame rate mode : Constant
Frame rate : 23.976 fps
Color space : YUV
Chroma subsampling : 4:2:0
Bit depth : 8 bits
Scan type : Progressive
Bits/(Pixel*Frame) : 0.201
Stream size : 6.01 GiB (94%)
Writing library : x264 core 133 r2334 a3ac64b
Encoding settings : cabac=1 / ref=4 / deblock=1:-1:-1 / analyse=0x3:0x113 / me=umh / subme=10 / psy=1 / psy_rd=1.00:0.00 / mixed_ref=1 / me_range=32 / chroma_me=1 / trellis=2 / 8x8dct=1 / cqm=0 / deadzone=21,11 / fast_pskip=0 / chroma_qp_offset=-2 / threads=3 / lookahead_threads=1 / sliced_threads=0 / nr=0 / decimate=0 / interlaced=0 / bluray_compat=0 / constrained_intra=0 / bframes=7 / b_pyramid=2 / b_adapt=2 / b_bias=0 / direct=3 / weightb=1 / open_gop=0 / weightp=2 / keyint=250 / keyint_min=23 / scenecut=40 / intra_refresh=0 / rc_lookahead=40 / rc=2pass / mbtree=0 / bitrate=10000 / ratetol=1.0 / qcomp=0.60 / qpmin=10 / qpmax=69 / qpstep=4 / cplxblur=20.0 / qblur=0.5 / vbv_maxrate=40000 / vbv_bufsize=30000 / nal_hrd=none / frame-packing=4 / ip_ratio=1.30 / pb_ratio=1.20 / aq=1:0.80
Language : English
Default : Yes
Forced : No
DURATION : 01:27:50.766000000
NUMBER_OF_FRAMES : 126372
NUMBER_OF_BYTES : 6585963844
_STATISTICS_WRITING_APP : mkvmerge v8.1.0 (‘Psychedelic Postcard’) 32bit
_STATISTICS_WRITING_DATE_UT : 2015-08-07 17:50:01
_STATISTICS_TAGS : BPS DURATION NUMBER_OF_FRAMES NUMBER_OF_BYTES

Audio
ID : 2
Format : AC-3
Format/Info : Audio Coding 3
Mode extension : CM (complete main)
Format settings, Endianness : Big
Codec ID : A_AC3
Duration : 1h 27mn
Bit rate mode : Constant
Bit rate : 448 Kbps
Channel(s) : 6 channels
Channel positions : Front: L C R, Side: L R, LFE
Sampling rate : 48.0 KHz
Compression mode : Lossy
Delay relative to video : 4ms
Stream size : 282 MiB (4%)
Title : French AC-3 16 [email protected] Kbps
Language : French
Default : Yes
Forced : No

Menu
00:00:00.000 : en:(01)00:00:00:000