Telecharger La Ligne verte [BLURAY 720p] French

(TRUEFRENCH = Vraie voix française)

(AC3 = Dolby Digital 5.1)

BLURAY 720p | MULTiLANGUES (Avec TRUEFRENCH) | VO DTS | VFF AC3

La Ligne verte

La Ligne verte

La Ligne verte

Origine du film : Américain
Réalisateur : Frank Darabont
Acteurs : Tom Hanks, Michael Clarke Duncan, David Morse
Genre : Fantastique, Policier
Durée : 3h 9min
Date de sortie : 1 mars 2000
Année de production : 1999
Titre Original : The Green Mile
Distribué par : United International Pictures (UIP)
Note presse : La Ligne verte 3,0/5
Note spectateurs : La Ligne verte

; »>4,5/5 (49 363)
Bande annonce :

e563d30fec7b9e622e6022ffc3ee9517

18650717″>Cliquez-ici pour voir la bande annonce e563d30fec7b9e622e6022ffc3ee9517″> 18650717

e563d30fec7b9e622e6022ffc3ee9517

La Ligne verte

Paul Edgecomb, pensionnaire centenaire d'une maison de retraite, est hanté par ses souvenirs. Gardien-chef du pénitencier de Cold Mountain en 1935, il était chargé de veiller au bon déroulement des exécutions capitales en s’efforçant d'adoucir les derniers moments des condamnés. Parmi eux se trouvait un colosse du nom de John Coffey, accusé du viol et du meurtre de deux fillettes. Intrigué par cet homme candide et timide aux dons magiques, Edgecomb va tisser avec lui des liens très forts.

Nom de la release : La.ligne.verte.1999.Multi.720P.BluRay.x264-Heman 30107″ style= »display:inline; »>

Qualité : BLURAY 720p
Format : MKV
Langue : Anglais, Français
Sous-titre : Français
Découpé avec : Winrar
Nombre de fichiers : 9 Fichiers
Taille des fichiers : 1000 Mo 298 Mo
Taille totale : 8298 Mo

[9 Liens Interchangeables : 8 x 1000 Mo 1 x 298 Mo]

1fichier
Télécharger

Uptobox
Télécharger

Free
Télécharger

Uploaded
Télécharger

Rapidgator
Télécharger

TurboBit
Télécharger

[2 Liens PREMIUM : 1 x 4.09 GB 1 x 4 GB]

Uploaded
Partie 1
Partie 2

[1 Lien PREMIUM : 1 x 8.09 GB]

1fichier
Télécharger

Uptobox
Télécharger

TurboBit
Télécharger

NFO :

Afficher / Masquer le texte d9b4ab3d17a92eb8eaaa940783907bef » class= »text_spoiler » style= »display:none; »>General
Complete name : La.ligne.verte.1999.Multi.720P.BluRay.x264-Heman-www.Zone-Telechargement.com.mkv
Format : Matroska
Format version : Version 2
File size : 8.10 GiB
Duration : 3h 8mn
Overall bit rate : 6 151 Kbps
Encoded date : UTC 2012-02-12 13:14:05
Writing application : mkvmerge v3.4.0 ('Rapunzel') built on May 15 2010 09:38:20
Writing library : libebml v0.8.0 libmatroska v0.9.0

Video
ID : 1
Format : AVC
Format/Info : Advanced Video Codec
Format profile : [email protected]
Format settings, CABAC : Yes
Format settings, ReFrames : 9 frames
Codec ID : V_MPEG4/ISO/AVC
Duration : 3h 8mn
Bit rate : 4 000 Kbps
Width : 1 280 pixels
Height : 720 pixels
Display aspect ratio : 16:9
Frame rate mode : Constant
Frame rate : 23.976 fps
Color space : YUV
Chroma subsampling : 4:2:0
Bit depth : 8 bits
Scan type : Progressive
Bits/(Pixel*Frame) : 0.181
Stream size : 5.11 GiB (63%)
Writing library : x264 core 120 r2164 da19765
Encoding settings : cabac=1 / ref=9 / deblock=1:-3:-3 / analyse=0x3:0x133 / me=umh / subme=11 / psy=1 / psy_rd=1.00:0.30 / mixed_ref=1 / me_range=128 / chroma_me=1 / trellis=2 / 8x8dct=1 / cqm=0 / deadzone=21,11 / fast_pskip=0 / chroma_qp_offset=-4 / threads=12 / sliced_threads=0 / nr=0 / decimate=0 / interlaced=0 / bluray_compat=0 / constrained_intra=0 / bframes=6 / b_pyramid=2 / b_adapt=2 / b_bias=0 / direct=3 / weightb=1 / open_gop=1 / weightp=2 / keyint=250 / keyint_min=23 / scenecut=40 / intra_refresh=0 / rc_lookahead=250 / rc=2pass / mbtree=1 / bitrate=4000 / ratetol=1.0 / qcomp=0.60 / qpmin=0 / qpmax=69 / qpstep=4 / cplxblur=20.0 / qblur=0.5 / vbv_maxrate=38000 / vbv_bufsize=38000 / nal_hrd=none / ip_ratio=1.40 / aq=2:1.00
Language : English
Default : No
Forced : No
Color primaries : BT.709
Transfer characteristics : BT.709
Matrix coefficients : BT.709

Audio #1
ID : 2
Format : AC-3
Format/Info : Audio Coding 3
Mode extension : CM (complete main)
Format settings, Endianness : Big
Codec ID : A_AC3
Duration : 3h 8mn
Bit rate mode : Constant
Bit rate : 640 Kbps
Channel(s) : 6 channels
Channel positions : Front: L C R, Side: L R, LFE
Sampling rate : 48.0 KHz
Bit depth : 16 bits
Compression mode : Lossy
Stream size : 863 MiB (10%)
Title : VFF AC3 [email protected]
Language : French
Default : Yes
Forced : No

Audio #2
ID : 3
Format : DTS
Format/Info : Digital Theater Systems
Mode : 16
Format settings, Endianness : Big
Codec ID : A_DTS
Duration : 3h 8mn
Bit rate mode : Constant
Bit rate : 1 510 Kbps
Channel(s) : 6 channels
Channel positions : Front: L C R, Side: L R, LFE
Sampling rate : 48.0 KHz
Bit depth : 24 bits
Compression mode : Lossy
Stream size : 1.99 GiB (25%)
Title : VO Full DTS 5.1
Language : English
Default : No
Forced : No

Text #1
ID : 4
Format : UTF-8
Codec ID : S_TEXT/UTF8
Codec ID/Info : UTF-8 Plain Text
Title : Srt Fr Forcés
Language : French
Default : Yes
Forced : No

Text #2
ID : 5
Format : UTF-8
Codec ID : S_TEXT/UTF8
Codec ID/Info : UTF-8 Plain Text
Title : Srt Fr Complets
Language : French
Default : No
Forced : No

Text #3
ID : 6
Format : UTF-8
Codec ID : S_TEXT/UTF8
Codec ID/Info : UTF-8 Plain Text
Title : Srt VO Complets
Language : English
Default : No
Forced : No

Jeux Gratuit
15354131_1854970838071206_1069261547_o.png