Telecharger La Mélodie du bonheur [DVDRiP] French

Qualité BLURAY 1080p | FRENCH | son DTS

La Mélodie du bonheur

La Mélodie du bonheur

Origine du film : Britannique, Américain
Réalisateur : Robert Wise
Acteurs : Julie Andrews, Christopher Plummer, Richard Haydn
Genre : Comédie musicale, Famille, Drame
Durée : 2h54min
Année de production : 1965
Titre Original : The Sound of Music
Note presse : La Mélodie du bonheur 2,0/5
Note spectateurs : La Mélodie du bonheur

; »>3,8/5 (871)
Bande annonce :

f05932121e934298a987dcb05599aed3

19518144″>Cliquez-ici pour voir la bande annonce f05932121e934298a987dcb05599aed3″> 19518144

f05932121e934298a987dcb05599aed3

La Mélodie du bonheur

Un veuf va voir sa tranquillité terriblement menacée par le charme d’une gouvernante engagée pour veiller sur sa nombreuse progéniture.
101948″ style= »display:inline; »>

La Mélodie du bonheur

Format : MKV
Découpé avec : Winrar

La Mélodie du bonheur

La.Melodie.Du.Bonheur.1965.FRENCH.1080p.Bluray.x264.DTS-Ducks

(10262 Mo)

[Liens Interchangeables entre hébergeurs: 10x 1000 Mo + 1x 262 Mo]

Uptobox
Télécharger

Uplea
Télécharger

1fichier
Télécharger

Uploaded
Télécharger

Rapidgator
Télécharger

TurboBit
Télécharger

[ Liens Premium ]

Uptobox
Télécharger

Uplea
Télécharger

1fichier
Télécharger

Uploaded
Télécharger

TurboBit
Télécharger

NFO :

Afficher / Masquer le texte bf055d9b17e3ac3b80c34e230f569933″ class= »text_spoiler » style= »display:none; »>La.Melodie.Du.Bonheur.1965.FRENCH.1080p.Bluray.x264.DTS-Ducks.zone-telechargement.com.mkv
Format : Matroska
Format version : Version 2
File size : 10.0 GiB
Duration : 2h 54mn
Overall bit rate : 8 214 Kbps
Movie name : SOUND_OF_MUSIC_WW.Title360.BlurayRip
Encoded date : UTC 2013-03-27 20:53:35
Writing application : DVDFab
Writing library : libebml v0.7.8 + libmatroska v0.8.1

Video
ID : 1
Format : AVC
Format/Info : Advanced Video Codec
Format profile : [email protected]
Format settings, CABAC : Yes
Format settings, ReFrames : 2 frames
Codec ID : V_MPEG4/ISO/AVC
Duration : 2h 54mn
Bit rate : 7 282 Kbps
Width : 1 920 pixels
Height : 1 080 pixels
Display aspect ratio : 16:9
Frame rate mode : Constant
Frame rate : 23.976 fps
Color space : YUV
Chroma subsampling : 4:2:0
Bit depth : 8 bits
Scan type : Progressive
Bits/(Pixel*Frame) : 0.146
Stream size : 8.89 GiB (89%)
Writing library : x264 core
Default : Yes
Forced : No
Color range : Limited
Color primaries : BT.709
Transfer characteristics : BT.709
Matrix coefficients : BT.709

Audio
ID : 2
Format : DTS
Format/Info : Digital Theater Systems
Mode : 16
Format settings, Endianness : Big
Codec ID : A_DTS
Duration : 2h 54mn
Bit rate mode : Constant
Bit rate : 768 Kbps
Channel(s) : 6 channels
Channel positions : Front: L C R, Side: L R, LFE
Sampling rate : 48.0 KHz
Bit depth : 24 bits
Compression mode : Lossy
Stream size : 960 MiB (9%)
Language : French
Default : Yes
Forced : No