Telecharger La Momie : la Tombe de l'Empereur Dragon [BLURAY 720p] French

(TRUEFRENCH = Vraie voix française)

(AC3 = Dolby Digital 5.1)

BLURAY 720p | TRUEFRENCH

La Momie : la Tombe de l'Empereur Dragon

La Momie : la Tombe de l'Empereur Dragon

La Momie : la Tombe de l'Empereur Dragon

Origine du film : Chinois, allemand, américain
Réalisateur : Rob Cohen
Acteurs : Brendan Fraser, Jet Li, Maria Bello
Genre : Aventure, Fantastique
Durée : 1h 51min
Date de sortie : 6 août 2008,
Année de production : 2008
Titre Original : The Mummy : Tomb of the Dragon Emperor
Distribué par : Universal Pictures International France
Note presse : La Momie : la Tombe de l'Empereur Dragon 2,8/5
Note spectateurs : La Momie : la Tombe de l'Empereur Dragon

; »>2,3/5 (6 713)
Bande annonce :

e13a70e38d9a770a9160d90e46b8a6cf

18815512″>Cliquez-ici pour voir la bande annonce e13a70e38d9a770a9160d90e46b8a6cf »> 18815512

e13a70e38d9a770a9160d90e46b8a6cf

La Momie : la Tombe de l'Empereur Dragon

Le troisième épisode de la saga La Momie nous transporte cette fois en Asie pour une nouvelle aventure qui verra Rick O'Connell et les siens livrer un combat sans merci à l'Empereur Dragon. Des catacombes de la Chine antique aux sommets de l'Himalaya, l'explorateur intrépide, son jeune fils Alex, sa femme Evelyn et son beau-frère Jonathan affronteront la Momie ressuscitée du plus cruel conquérant de Chine.Victimes d'une sorcière maléfique, l'Empereur Dragon et ses 5000 soldats ont été relégués pour l'éternité dans les limbes. L'immense armée de terre cuite reposera ainsi durant 2000 ans, oubliée de tous, jusqu'à ce qu'Alex commette l'erreur de réveiller son chef. Pour éviter une vague de méfaits, Rick devra appeler à la rescousse les seules personnes plus habiles que lui à combattre les morts-vivants : sa propre famille…

Nom de la release : La.Momie.La.Tombe.De.L.Empereur.Dragon.2008.TRUEFRENCH.720p.BluRay.x264.AC3-WHATELSE 35550″ style= »display:inline; »>

Qualité : BLURAY 720p
Format : MKV
Langue : Français
Sous-titre : Français
Découpé avec : Winrar
Nombre de fichiers : 5 Fichiers
Taille des fichiers : 1000 Mo 477 Mo
Taille totale : 4477 Mo

[5 Liens Interchangeables : 4 x 1000 Mo 1 x 477 Mo]

1fichier
Télécharger

Uptobox
Télécharger

Free
Télécharger

Uploaded
Télécharger

Rapidgator
Télécharger

TurboBit
Télécharger

[1 Lien PREMIUM : 1 x 4.36 GB]

1fichier
Télécharger

Uptobox
Télécharger

Uploaded
Télécharger

TurboBit
Télécharger

NFO :

Afficher / Masquer le texte 8b9cf070e58aaa5c23c6941ebb290ee6″ class= »text_spoiler » style= »display:none; »>General
Complete name : La.Momie.La.Tombe.De.L.Empereur.Dragon.2008.TRUEFRENCH.720p.BluRay.x264.AC3-WHATELSE.mkv
Format : Matroska
Format version : Version 1
File size : 4.37 GiB
Duration : 1h 51mn
Overall bit rate : 5 605 Kbps
Encoded date : UTC 2009-02-27 04:33:26
Writing application : mkvmerge v2.0.2 ('You're My Flame') built on Feb 21 2007 23:40:55
Writing library : libebml v0.7.7 libmatroska v0.8.1

Video
ID : 1
Format : AVC
Format/Info : Advanced Video Codec
Format profile : [email protected]
Format settings, CABAC : Yes
Format settings, ReFrames : 4 frames
Codec ID : V_MPEG4/ISO/AVC
Duration : 1h 51mn
Bit rate : 4 963 Kbps
Width : 1 280 pixels
Height : 528 pixels
Display aspect ratio : 2.40:1
Frame rate mode : Constant
Frame rate : 23.976 fps
Color space : YUV
Chroma subsampling : 4:2:0
Bit depth : 8 bits
Scan type : Progressive
Bits/(Pixel*Frame) : 0.306
Stream size : 3.79 GiB (87%)
Title : Blu-Ray Disc ZONE B – FRANCE
Writing library : x264 core 65 r1028M 83baa7f
Encoding settings : cabac=1 / ref=4 / deblock=1:-3:-3 / analyse=0x3:0x113 / me=umh / subme=9 / psy_rd=1.0:0.0 / mixed_ref=1 / me_range=24 / chroma_me=0 / trellis=2 / 8x8dct=1 / cqm=0 / deadzone=21,11 / chroma_qp_offset=-2 / threads=6 / nr=0 / decimate=0 / mbaff=0 / bframes=3 / b_pyramid=1 / b_adapt=2 / b_bias=0 / direct=3 / wpredb=1 / keyint=250 / keyint_min=25 / scenecut=40(pre) / rc=2pass / bitrate=4963 / ratetol=1.0 / qcomp=0.60 / qpmin=10 / qpmax=51 / qpstep=4 / cplxblur=20.0 / qblur=0.5 / vbv_maxrate=50000 / vbv_bufsize=50000 / ip_ratio=1.40 / pb_ratio=1.30 / aq=1:1.00
Language : French
Default : Yes
Forced : No

Audio
ID : 2
Format : AC-3
Format/Info : Audio Coding 3
Mode extension : CM (complete main)
Format settings, Endianness : Big
Codec ID : A_AC3
Duration : 1h 51mn
Bit rate mode : Constant
Bit rate : 640 Kbps
Channel(s) : 6 channels
Channel positions : Front: L C R, Side: L R, LFE
Sampling rate : 48.0 KHz
Bit depth : 16 bits
Compression mode : Lossy
Stream size : 511 MiB (11%)
Title : Blu-Ray Disc ZONE B – FRANCE
Language : French
Default : Yes
Forced : No

Text
ID : 3
Format : UTF-8
Codec ID : S_TEXT/UTF8
Codec ID/Info : UTF-8 Plain Text
Title : Sous-titres forcés – Blu-Ray Disc ZONE B – FRANCE
Language : French
Default : Yes
Forced : No

Jeux Gratuit
15354131_1854970838071206_1069261547_o.png