Telecharger La Mort aux trousses [DVDRiP] French

Qualité BDRiP mkv | FRENCH

La Mort aux trousses

La Mort aux trousses

Origine du film : Américain
Réalisateur : Alfred Hitchcock
Acteurs : Cary Grant, Eva Marie Saint, James Mason
Genre : Policier, Aventure, Comédie
Durée : 2h16min
Date de sortie : 21 octobre 1959
Année de production : 1959
Titre Original : North by Northwest
Distribué par : Carlotta Films
Note presse : La Mort aux trousses 4,6/5
Note spectateurs : La Mort aux trousses

; »>4,2/5 (10 560)
Bande annonce :

0f2b135b074f952f4c2c526dbcf18a2f

19546461″>Cliquez-ici pour voir la bande annonce 0f2b135b074f952f4c2c526dbcf18a2f »> 19546461

0f2b135b074f952f4c2c526dbcf18a2f

La Mort aux trousses

Le publiciste Roger Tornhill se retrouve par erreur dans la peau d’un espion. Pris entre une mystérieuse organisation qui cherche à le supprimer et la police qui le poursuit, Tornhill est dans une situation bien inconfortable. Il fuit à travers les Etats-Unis et part à la recherche d’une vérité qui se révèlera très surprenante.
105260″ style= »display:inline; »>

La Mort aux trousses

Format : MKV
Sous-titres : Forcé pour les passages en langue étrangère.

La Mort aux trousses

North.By.Northwest.1959.FRENCH.SUBFORCED.BRRip.x264.AC3-FREAKY

(2100 Mo)

[Liens Interchangeables entre hébergeurs: 2x 1000 Mo + 1x 100 Mo]

Uptobox
Télécharger

Uploaded
Télécharger

TurboBit
Télécharger

Rapidgator
Télécharger

Uplea
Télécharger

1fichier
Télécharger

[Lien Premium]

Uptobox
Télécharger

Uploaded
Télécharger

TurboBit
Télécharger

Uplea
Télécharger

1fichier
Télécharger

NFO :

Afficher / Masquer le texte e9bac43561dcc985f366957482174405″ class= »text_spoiler » style= »display:none; »>General
Complete name : North.By.Northwest.1959.FRENCH.SUBFORCED.BRRip.x264.AC3-FREAKY.mkv
Format : Matroska
Format version : Version 2
File size : 2.06 GiB
Duration : 2h 16mn
Overall bit rate : 2 157 Kbps
Writing application : Lavf54.63.104
Writing library : Lavf54.63.104

Video
ID : 1
Format : AVC
Format/Info : Advanced Video Codec
Format profile : [email protected]
Format settings, CABAC : Yes
Format settings, ReFrames : 4 frames
Codec ID : V_MPEG4/ISO/AVC
Duration : 2h 16mn
Bit rate : 1 962 Kbps
Width : 720 pixels
Height : 400 pixels
Display aspect ratio : 16:9
Frame rate mode : Constant
Frame rate : 23.976 fps
Color space : YUV
Chroma subsampling : 4:2:0
Bit depth : 8 bits
Scan type : Progressive
Bits/(Pixel*Frame) : 0.284
Stream size : 1.83 GiB (89%)
Writing library : x264 core 123 r2189 35cf912
Encoding settings : cabac=1 / ref=3 / deblock=1:0:0 / analyse=0x3:0x133 / me=umh / subme=9 / psy=1 / psy_rd=1.00:0.00 / mixed_ref=1 / me_range=24 / chroma_me=1 / trellis=1 / 8x8dct=1 / cqm=0 / deadzone=21,11 / fast_pskip=1 / chroma_qp_offset=-2 / threads=6 / sliced_threads=0 / nr=0 / decimate=1 / interlaced=0 / bluray_compat=0 / constrained_intra=0 / bframes=3 / b_pyramid=2 / b_adapt=1 / b_bias=0 / direct=1 / weightb=1 / open_gop=0 / weightp=2 / keyint=250 / keyint_min=25 / scenecut=40 / intra_refresh=0 / rc_lookahead=40 / rc=2pass / mbtree=1 / bitrate=1962 / ratetol=1.0 / qcomp=0.60 / qpmin=10 / qpmax=30 / qpstep=4 / cplxblur=20.0 / qblur=0.5 / ip_ratio=1.40 / aq=1:1.00
Default : Yes
Forced : No

Audio
ID : 2
Format : AC-3
Format/Info : Audio Coding 3
Mode extension : CM (complete main)
Format settings, Endianness : Big
Codec ID : A_AC3
Duration : 2h 16mn
Bit rate mode : Constant
Bit rate : 192 Kbps
Channel(s) : 1 channel
Channel positions : Front: C
Sampling rate : 48.0 KHz
Compression mode : Lossy
Stream size : 187 MiB (9%)
Language : French
Default : Yes
Forced : No

Source : North.By.Northwest.1959.MULTi.1080p.BluRay.x264-FHD