Telecharger La Mort aux trousses [DVDRiP] French

Qualité BLURAY 720p | FRENCH

La Mort aux trousses

La Mort aux trousses

Origine du film : Américain
Réalisateur : Alfred Hitchcock
Acteurs : Cary Grant, Eva Marie Saint, James Mason
Genre : Policier, Aventure, Comédie
Durée : 2h16min
Date de sortie : 21 octobre 1959
Année de production : 1959
Titre Original : North by Northwest
Distribué par : Carlotta Films
Note presse : La Mort aux trousses 4,6/5
Note spectateurs : La Mort aux trousses

; »>4,2/5 (10 529)
Bande annonce :

cd7a35006cfb63c93ea62d0700f032a0

19546461″>Cliquez-ici pour voir la bande annonce cd7a35006cfb63c93ea62d0700f032a0″> 19546461

cd7a35006cfb63c93ea62d0700f032a0

La Mort aux trousses

Le publiciste Roger Tornhill se retrouve par erreur dans la peau d’un espion. Pris entre une mystérieuse organisation qui cherche à le supprimer et la police qui le poursuit, Tornhill est dans une situation bien inconfortable. Il fuit à travers les Etats-Unis et part à la recherche d’une vérité qui se révèlera très surprenante.
101671″ style= »display:inline; »>

La Mort aux trousses

Format : MKV
Découpé avec : Winrar

La Mort aux trousses

North.By.Northwest.1959.FRENCH.720p.BluRay.x264-NOTAG

(6279 Mo)

[Liens Interchangeables entre hébergeurs: 6x 1000 Mo + 1x 279 Mo]

Uptobox
Télécharger

Uplea
Télécharger

1fichier
Télécharger

Uploaded
Télécharger

Rapidgator
Télécharger

TurboBit
Télécharger

[ Liens Premium ]

Uptobox
Télécharger

Uplea
Télécharger

1fichier
Télécharger

Uploaded
Télécharger

TurboBit
Télécharger

NFO :

Afficher / Masquer le texte 4d1c772b158580bb6fd3c4e06c972181″ class= »text_spoiler » style= »display:none; »>North.By.Northwest.1959.FRENCH.720p.BluRay.x264-NOTAG.zone-telechargement.com.mkv
Format : Matroska
Format version : Version 4 / Version 2
File size : 6.13 GiB
Duration : 2h 16mn
Overall bit rate : 6 435 Kbps
Encoded date : UTC 2015-10-19 13:36:52
Writing application : mkvmerge v7.4.0 (‘Circles’) 64bit built on Dec 12 2014 12:19:56
Writing library : libebml v1.3.0 + libmatroska v1.4.1
DURATION : 02:16:26.208000000
NUMBER_OF_FRAMES : 255819
NUMBER_OF_BYTES : 196468992
_STATISTICS_WRITING_APP : mkvmerge v7.4.0 (‘Circles’) 64bit built on Dec 12 2014 12:19:56
_STATISTICS_WRITING_DATE_UT : 2015-10-19 13:36:52
_STATISTICS_TAGS : BPS DURATION NUMBER_OF_FRAMES NUMBER_OF_BYTES

Video
ID : 1
Format : AVC
Format/Info : Advanced Video Codec
Format profile : [email protected]
Format settings, CABAC : Yes
Format settings, ReFrames : 5 frames
Codec ID : V_MPEG4/ISO/AVC
Duration : 2h 16mn
Bit rate : 6 242 Kbps
Width : 1 280 pixels
Height : 720 pixels
Display aspect ratio : 16:9
Frame rate mode : Constant
Frame rate : 23.976 fps
Color space : YUV
Chroma subsampling : 4:2:0
Bit depth : 8 bits
Scan type : Progressive
Bits/(Pixel*Frame) : 0.282
Stream size : 5.83 GiB (95%)
Writing library : x264 core 78 r1301 bcba15d
Encoding settings : cabac=1 / ref=5 / deblock=1:0:0 / analyse=0x3:0x113 / me=umh / subme=7 / psy=1 / psy_rd=1.0:0.0 / mixed_ref=1 / me_range=16 / chroma_me=1 / trellis=1 / 8x8dct=1 / cqm=0 / deadzone=21,11 / chroma_qp_offset=-2 / threads=6 / nr=0 / decimate=1 / mbaff=0 / constrained_intra=0 / bframes=3 / b_pyramid=0 / b_adapt=1 / b_bias=0 / direct=1 / wpredb=1 / keyint=250 / keyint_min=25 / scenecut=40 / rc_lookahead=40 / rc=2pass / mbtree=1 / bitrate=6242 / ratetol=1.0 / qcomp=0.60 / qpmin=10 / qpmax=51 / qpstep=4 / cplxblur=20.0 / qblur=0.5 / ip_ratio=1.40 / aq=1:1.00
Language : English
Default : Yes
Forced : No
DURATION : 02:16:25.129000000
NUMBER_OF_FRAMES : 196247
NUMBER_OF_BYTES : 6386229645
_STATISTICS_WRITING_APP : mkvmerge v7.4.0 (‘Circles’) 64bit built on Dec 12 2014 12:19:56
_STATISTICS_WRITING_DATE_UT : 2015-10-19 13:36:52
_STATISTICS_TAGS : BPS DURATION NUMBER_OF_FRAMES NUMBER_OF_BYTES

Audio
ID : 2
Format : AC-3
Format/Info : Audio Coding 3
Mode extension : CM (complete main)
Format settings, Endianness : Big
Codec ID : A_AC3
Duration : 2h 16mn
Bit rate mode : Constant
Bit rate : 192 Kbps
Channel(s) : 1 channel
Channel positions : Front: C
Sampling rate : 48.0 KHz
Compression mode : Lossy
Stream size : 187 MiB (3%)
Title : French AC3 1.0
Language : French
Default : Yes
Forced : No