Telecharger La Mort était au rendez-vous [DVDRiP] French

Qualité BLURAY 1080p | FRENCH

La Mort était au rendez-vous

La Mort était au rendez-vous

Origine du film : Italien
Réalisateur : Giulio Petroni
Acteurs : Mario Brega, Lee Van Cleef, John Phillip Law
Genre : Western
Durée : 2h0min
Année de production : 1967
Titre Original : Da uomo a uomo
Note spectateurs : La Mort était au rendez-vous

; »>3,7/5 (65)

La Mort était au rendez-vous

Un western spaghetti assez classique dans l’ensemble avec ses décors arides, ses visages de gangsters patibulaires et son action omniprésente. Ennio Morricone signe une BO sympa comme toujours et L…

Lire la suite

104937″ style= »display:inline; »>

La Mort était au rendez-vous

Format : MKV
Découpé avec : Winrar

La Mort était au rendez-vous

La mort était au rendez-vous 1967 FRENCH 1080P X264-NoTaG

(7356 Mo)

[Liens Interchangeables entre hébergeurs: 7x 1000 Mo + 1x 356 Mo]

Uptobox
Télécharger

Uplea
Télécharger

1fichier
Télécharger

Uploaded
Télécharger

Rapidgator
Télécharger

TurboBit
Télécharger

[ Liens Premium ]

Uptobox
Télécharger

Uplea
Télécharger

1fichier
Télécharger

Uploaded
Télécharger

TurboBit
Télécharger

NFO :

Afficher / Masquer le texte d0c83a8afe7b957a34c56f50c621c082″ class= »text_spoiler » style= »display:none; »>La mort était au rendez-vous 1967 FRENCH 1080P X264-NoTaG.zone-telechargement.com.mkv
Format : Matroska
Format version : Version 4 / Version 2
File size : 7.18 GiB
Duration : 1h 54mn
Overall bit rate : 8 946 Kbps
Encoded date : UTC 2014-03-03 13:33:04
Writing application : mkvmerge v6.6.0 (‘The Edge Of The In Between’) built on Dec 1 2013 17:55:00
Writing library : libebml v1.3.0 + libmatroska v1.4.1

Video
ID : 1
Format : AVC
Format/Info : Advanced Video Codec
Format profile : [email protected]
Format settings, CABAC : Yes
Format settings, ReFrames : 5 frames
Codec ID : V_MPEG4/ISO/AVC
Duration : 1h 54mn
Bit rate : 8 576 Kbps
Width : 1 920 pixels
Height : 824 pixels
Display aspect ratio : 2.35:1
Frame rate mode : Constant
Frame rate : 23.976 fps
Color space : YUV
Chroma subsampling : 4:2:0
Bit depth : 8 bits
Scan type : Progressive
Bits/(Pixel*Frame) : 0.226
Stream size : 6.89 GiB (96%)
Writing library : x264 core 140 r2377 1ca7bb9
Encoding settings : cabac=1 / ref=5 / deblock=1:-3:-3 / analyse=0x3:0x133 / me=umh / subme=8 / psy=1 / psy_rd=1.00:0.15 / mixed_ref=1 / me_range=16 / chroma_me=1 / trellis=1 / 8x8dct=1 / cqm=0 / deadzone=21,11 / fast_pskip=0 / chroma_qp_offset=-3 / threads=12 / lookahead_threads=2 / sliced_threads=0 / nr=0 / decimate=1 / interlaced=0 / bluray_compat=0 / constrained_intra=0 / bframes=3 / b_pyramid=2 / b_adapt=2 / b_bias=0 / direct=3 / weightb=1 / open_gop=0 / weightp=2 / keyint=240 / keyint_min=23 / scenecut=40 / intra_refresh=0 / rc_lookahead=50 / rc=crf / mbtree=1 / crf=20.0 / qcomp=0.60 / qpmin=0 / qpmax=69 / qpstep=4 / ip_ratio=1.40 / aq=1:1.00
Default : Yes
Forced : No

Audio
ID : 2
Format : AC-3
Format/Info : Audio Coding 3
Mode extension : CM (complete main)
Format settings, Endianness : Big
Codec ID : A_AC3
Duration : 1h 54mn
Bit rate mode : Constant
Bit rate : 192 Kbps
Channel count : 2 channels
Channel positions : Front: L R
Sampling rate : 48.0 KHz
Bit depth : 16 bits
Compression mode : Lossy
Stream size : 158 MiB (2%)
Language : French
Default : Yes
Forced : No

Jeux Gratuit
15354131_1854970838071206_1069261547_o.png