Telecharger La Mouche [DVDRiP] French

(TRUEFRENCH = Vraie voix française)

Qualité BDRiP mkv | TRUEFRENCH

La Mouche

La Mouche

La Mouche

Origine du film : Américain, Britannique, Canadien
Réalisateur : David Cronenberg
Acteurs : Jeff Goldblum, Geena Davis, John Getz
Genre : Epouvante-horreur, Science fiction, Fantastique
Durée : 1h36min
Date de sortie : 21 janvier 1987
Année de production : 1986
Titre Original : The Fly
Note presse : La Mouche 4,8/5
Note spectateurs : La Mouche

; »>3,7/5 (9 808)
Bande annonce :

23ebe99928d597687f9eb4304ef01910

19418784″>Cliquez-ici pour voir la bande annonce 23ebe99928d597687f9eb4304ef01910″> 19418784

23ebe99928d597687f9eb4304ef01910

La Mouche

Seth Brundle est un jeune biologiste très doué. Après avoir fait ses premières armes dans une brillante équipe, il se décide à travailler seul. Il met au point une invention qui doit révolutionner le monde : la « téléportation », qui consiste à transporter la matière à travers l’espace. Les essais sur un babouin sont peu convaincants et après des fuites dans la presse, il décide de se téléporter lui-même. Seulement il ne s’aperçoit pas qu’une mouche fait partie du voyage.
92754″ style= »display:inline; »>

La Mouche

Format : MKV

La Mouche

La.Mouche.1986.MULTI.BRRip.x264.AC3-HuSh.mkv

(1370 Mo)

Uptobox
Télécharger

Uploaded
Télécharger

TurboBit
Télécharger

Rapidgator
Télécharger

Uplea
Télécharger

1fichier
Télécharger

NFO :

Afficher / Masquer le texte 8ad025e6a12e961f1e3d47645609759c » class= »text_spoiler » style= »display:none; »>General
Unique ID : 241815339583960805174559535997586391420 (0xB5EBF0BAE37319659B9CA2402246417C)
Complete name : La.Mouche.1986.MULTI.BRRip.x264.AC3-HuSh.mkv
Format : Matroska
Format version : Version 2
File size : 1.37 GiB
Duration : 1h 35mn
Overall bit rate mode : Variable
Overall bit rate : 2 048 Kbps
Movie name : La.Mouche.1986.MULTI.BRRip.x264.AC3-HuSh
Encoded date : UTC 2015-01-24 17:45:34
Writing application : mkvmerge v3.2.0 (‘Beginnings’) built on Feb 12 2010 16:46:17
Writing library : libebml v0.7.9 + libmatroska v0.8.1

Video
ID : 1
Format : AVC
Format/Info : Advanced Video Codec
Format profile : [email protected]
Format settings, CABAC : Yes
Format settings, ReFrames : 8 frames
Codec ID : V_MPEG4/ISO/AVC
Duration : 1h 35mn
Bit rate mode : Variable
Bit rate : 1 470 Kbps
Maximum bit rate : 17.5 Mbps
Width : 720 pixels
Height : 384 pixels
Display aspect ratio : 1.85:1
Original display aspect ratio : 1.85:1
Frame rate mode : Variable
Frame rate : 23.976 fps
Color space : YUV
Chroma subsampling : 4:2:0
Bit depth : 8 bits
Scan type : Progressive
Bits/(Pixel*Frame) : 0.222
Stream size : 979 MiB (70%)
Writing library : x264 core 144 r2525
Encoding settings : cabac=1 / ref=8 / deblock=1:-1:-1 / analyse=0x3:0x133 / me=umh / subme=9 / psy=1 / psy_rd=1.00:0.00 / mixed_ref=1 / me_range=32 / chroma_me=1 / trellis=2 / 8x8dct=1 / cqm=0 / deadzone=21,11 / fast_pskip=0 / chroma_qp_offset=-2 / threads=6 / lookahead_threads=1 / sliced_threads=0 / nr=0 / decimate=1 / interlaced=0 / bluray_compat=0 / constrained_intra=0 / bframes=3 / b_pyramid=2 / b_adapt=2 / b_bias=0 / direct=3 / weightb=1 / open_gop=1 / weightp=2 / keyint=230 / keyint_min=23 / scenecut=40 / intra_refresh=0 / rc_lookahead=60 / rc=2pass / mbtree=1 / bitrate=1470 / ratetol=1.0 / qcomp=0.60 / qpmin=10 / qpmax=69 / qpstep=4 / cplxblur=20.0 / qblur=0.5 / vbv_maxrate=17500 / vbv_bufsize=17500 / nal_hrd=vbr / filler=0 / ip_ratio=1.40 / aq=1:1.00
Language : English
Default : Yes
Forced : No

Audio #1
ID : 2
Format : AC-3
Format/Info : Audio Coding 3
Mode extension : CM (complete main)
Format settings, Endianness : Big
Codec ID : A_AC3
Duration : 1h 35mn
Bit rate mode : Constant
Bit rate : 384 Kbps
Channel(s) : 6 channels
Channel positions : Front: L C R, Side: L R, LFE
Sampling rate : 48.0 KHz
Bit depth : 16 bits
Compression mode : Lossy
Stream size : 263 MiB (19%)
Language : French
Default : Yes
Forced : No

Audio #2
ID : 3
Format : AC-3
Format/Info : Audio Coding 3
Mode extension : CM (complete main)
Format settings, Endianness : Big
Codec ID : A_AC3
Duration : 1h 35mn
Bit rate mode : Constant
Bit rate : 192 Kbps
Channel(s) : 2 channels
Channel positions : Front: L R
Sampling rate : 48.0 KHz
Bit depth : 16 bits
Compression mode : Lossy
Stream size : 131 MiB (9%)
Language : English
Default : No
Forced : No

Text #1
ID : 4
Format : UTF-8
Codec ID : S_TEXT/UTF8
Codec ID/Info : UTF-8 Plain Text
Title : SUBFORCED
Language : French
Default : Yes
Forced : Yes

Text #2
ID : 5
Format : UTF-8
Codec ID : S_TEXT/UTF8
Codec ID/Info : UTF-8 Plain Text
Language : French
Default : No
Forced : No