Telecharger La Nuit de l'évasion [DVDRiP] French

(TRUEFRENCH = Vraie voix française)

Qualité DVDRiP mkv | MULTiLANGUES (Avec TRUEFRENCH)

La Nuit de l'évasion

La Nuit de l'évasion

Origine du film : Britannique
Réalisateur : Delbert Mann
Acteurs : John Hurt, Jane Alexander, Doug McKeon
Genre : Comédie dramatique
Durée : 1h46min
Année de production : 1981
Titre Original : Night Crossing
Note spectateurs : La Nuit de l'évasion

; »>3/5 (1)

La Nuit de l'évasion

L’histoire vraie de deux familles qui ont tenté de s’échapper de Berlin-Est en ballon.
105347″ style= »display:inline; »>

La Nuit de l'évasion

Format : MKV

La Nuit de l'évasion

La Nuit de l’évasion 1981 MULTI.DVDRip.x264.AC3-HuSh

(1370 Mo)

Uptobox
Télécharger

Uploaded
Télécharger

TurboBit
Télécharger

Rapidgator
Télécharger

Uplea
Télécharger

1fichier
Télécharger

NFO :

Afficher / Masquer le texte a2152c466140236b1c8827b1861cfe63″ class= »text_spoiler » style= »display:none; »>■General

Unique ID : 183689628526745519729204975289898021923 (0x8A3155EA3AA7772DA126035BE93EB423)

Complete name : H:La.Nuit.De.L.Evasion.1981.MULTI.DVDRip.x264.AC3-HuShLa.Nuit.De.L.Evasion.1981.MULTI.DVDRip.x264.AC3-HuSh.mkv

Format : Matroska

Format version : Version 4 / Version 2

File size : 1.37 GiB

Duration : 1h 42mn

Overall bit rate mode : Variable

Overall bit rate : 1 905 Kbps

Movie name : La.Nuit.De.L.Evasion.1981.MULTI.DVDRip.x264.AC3-HuSh

Encoded date : UTC 2014-09-08 09:23:53

Writing application : mkvmerge v6.3.0 (‘You can’t stop me!’) built on Jun 28 2013 20:09:41

Writing library : libebml v1.3.0 + libmatroska v1.4.0

Video

ID : 1

Format : AVC

Format/Info : Advanced Video Codec

Format profile : [email protected]

Format settings, CABAC : Yes

Format settings, ReFrames : 9 frames

Codec ID : V_MPEG4/ISO/AVC

Duration : 1h 42mn

Bit rate mode : Variable

Bit rate : 1 519 Kbps

Maximum bit rate : 17.5 Mbps

Width : 720 pixels

Height : 576 pixels

Display aspect ratio : 4:3

Frame rate mode : Constant

Frame rate : 25.000 fps

Standard : PAL

Color space : YUV

Chroma subsampling : 4:2:0

Bit depth : 8 bits

Scan type : Progressive

Bits/(Pixel*Frame) : 0.147

Stream size : 1.07 GiB (78%)

Title : Video

Writing library : x264 core 135 r2345

Encoding settings : cabac=1 / ref=9 / deblock=1:-1:-1 / analyse=0x3:0x133 / me=umh / subme=10 / psy=1 / psy_rd=1.00:0.10 / mixed_ref=1 / me_range=32 / chroma_me=1 / trellis=2 / 8x8dct=1 / cqm=0 / deadzone=21,11 / fast_pskip=0 / chroma_qp_offset=-3 / threads=6 / lookahead_threads=1 / sliced_threads=0 / nr=0 / decimate=1 / interlaced=0 / bluray_compat=0 / constrained_intra=0 / bframes=8 / b_pyramid=2 / b_adapt=2 / b_bias=0 / direct=3 / weightb=1 / open_gop=0 / weightp=2 / keyint=250 / keyint_min=25 / scenecut=40 / intra_refresh=0 / rc_lookahead=50 / rc=2pass / mbtree=1 / bitrate=1519 / ratetol=1.0 / qcomp=0.60 / qpmin=10 / qpmax=69 / qpstep=4 / cplxblur=20.0 / qblur=0.5 / vbv_maxrate=17500 / vbv_bufsize=17500 / nal_hrd=vbr / ip_ratio=1.40 / aq=1:1.00

Default : Yes

Forced : No

Audio #1

ID : 2

Format : AC-3

Format/Info : Audio Coding 3

Mode extension : CM (complete main)

Format settings, Endianness : Big

Codec ID : A_AC3

Duration : 1h 42mn

Bit rate mode : Constant

Bit rate : 192 Kbps

Channel(s) : 2 channels

Channel positions : Front: L R

Sampling rate : 48.0 KHz

Compression mode : Lossy

Stream size : 141 MiB (10%)

Title : Franτais (Stereo AC3 @ 192 Kbps)

Language : French

Default : Yes

Forced : No

Audio #2

ID : 3

Format : AC-3

Format/Info : Audio Coding 3

Mode extension : CM (complete main)

Format settings, Endianness : Big

Codec ID : A_AC3

Duration : 1h 42mn

Bit rate mode : Constant

Bit rate : 192 Kbps

Channel(s) : 2 channels

Channel positions : Front: L R

Sampling rate : 48.0 KHz

Compression mode : Lossy

Stream size : 141 MiB (10%)

Title : Anglais (Stereo AC3 @ 192 Kbps)

Language : English

Default : No

Forced : No

Text #1

ID : 4

Format : UTF-8

Codec ID : S_TEXT/UTF8

Codec ID/Info : UTF-8 Plain Text

Title : Franτais

Language : French

Default : No

Forced : No

Text #2

ID : 5

Format : UTF-8

Codec ID : S_TEXT/UTF8

Codec ID/Info : UTF-8 Plain Text

Title : Franτais forcés

Language : French

Default : Yes

Forced : Yes