Telecharger La Nuit de Varennes [DVDRiP] French

Qualité BLURAY 1080p | FRENCH | son DTS

La Nuit de Varennes

La Nuit de Varennes

Origine du film : Italien, Français
Réalisateur : Ettore Scola
Acteurs : Jean-Louis Barrault, Marcello Mastroianni, Jean-Claude Brialy
Genre : Historique
Durée : 2h20min
Année de production : 1982
Note spectateurs : La Nuit de Varennes

; »>3/5 (64)
Bande annonce :

7815efbb8ef66ce68712d44075bc76f5

19512446″>Cliquez-ici pour voir la bande annonce 7815efbb8ef66ce68712d44075bc76f5″> 19512446

7815efbb8ef66ce68712d44075bc76f5

La Nuit de Varennes

Juin 1791, Louis XVI fuit a bord d’une berline pour gagner la frontiere. Sur le meme chemin, le destin a reuni de bien curieux personnages. Le revolutionnaire Restif de la Bretonne est face a un Casanova vieillissant entoure de royalistes en fuite. A Varennes, Louis XVI et la reine sont arretes…
98921″ style= »display:inline; »>

La Nuit de Varennes

Format : MKV
Découpé avec : Winrar

La Nuit de Varennes

The.Night.Of.Varennes.1982.FRENCH.1080p.BluRay.x264-CiNEFiLE

(11198 Mo)

[Liens Interchangeables entre hébergeurs: 11x 1000 Mo + 1x 198 Mo]

Uptobox
Télécharger

Uplea
Télécharger

1fichier
Télécharger

Uploaded
Télécharger

Rapidgator
Télécharger

TurboBit
Télécharger

[ Liens Premium ]

Uptobox
Télécharger

Uplea
Télécharger

1fichier
Télécharger

Uploaded
Télécharger

TurboBit
Télécharger

NFO :

Afficher / Masquer le texte ae185211734cd4b659c1bc1341576ac0″ class= »text_spoiler » style= »display:none; »>The.Night.Of.Varennes.1982.FRENCH.1080p.BluRay.x264-CiNEFiLE.zone-telechargement.com.mkv
Format : Matroska
Format version : Version 2
File size : 10.9 GiB
Duration : 2h 31mn
Overall bit rate : 10.3 Mbps
Encoded date : UTC 2010-04-16 03:53:36
Writing application : mkvmerge v3.3.0 (‘Language’) built on Mar 24 2010 14:59:24
Writing library : libebml v0.8.0 + libmatroska v0.9.0

Video
ID : 1
Format : AVC
Format/Info : Advanced Video Codec
Format profile : [email protected]
Format settings, CABAC : Yes
Format settings, ReFrames : 4 frames
Codec ID : V_MPEG4/ISO/AVC
Duration : 2h 31mn
Bit rate : 8 831 Kbps
Width : 1 792 pixels
Height : 1 080 pixels
Display aspect ratio : 5:3
Frame rate mode : Constant
Frame rate : 24.000 fps
Color space : YUV
Chroma subsampling : 4:2:0
Bit depth : 8 bits
Scan type : Progressive
Bits/(Pixel*Frame) : 0.190
Stream size : 9.12 GiB (83%)
Writing library : x264 core 93 r1538 bd72d46
Encoding settings : cabac=1 / ref=4 / deblock=1:0:0 / analyse=0x3:0x113 / me=umh / subme=7 / psy=1 / psy_rd=1.00:0.00 / mixed_ref=1 / me_range=16 / chroma_me=1 / trellis=1 / 8x8dct=1 / cqm=0 / deadzone=21,11 / fast_pskip=0 / chroma_qp_offset=-2 / threads=6 / sliced_threads=0 / nr=0 / decimate=1 / interlaced=0 / constrained_intra=0 / bframes=3 / b_pyramid=2 / b_adapt=1 / b_bias=0 / direct=1 / wpredb=1 / wpredp=2 / keyint=250 / keyint_min=25 / scenecut=40 / intra_refresh=0 / rc_lookahead=40 / rc=2pass / mbtree=1 / bitrate=8831 / ratetol=1.0 / qcomp=0.60 / qpmin=10 / qpmax=51 / qpstep=4 / cplxblur=20.0 / qblur=0.5 / ip_ratio=1.40 / aq=1:1.00
Language : French
Default : Yes
Forced : No

Audio
ID : 2
Format : DTS
Format/Info : Digital Theater Systems
Mode : 16
Format settings, Endianness : Big
Codec ID : A_DTS
Duration : 2h 31mn
Bit rate mode : Constant
Bit rate : 1 509 Kbps
Channel(s) : 2 channels
Channel positions : Front: L R
Sampling rate : 48.0 KHz
Bit depth : 24 bits
Compression mode : Lossy
Stream size : 1.60 GiB (15%)
Language : French
Default : Yes
Forced : No

Text
ID : 3
Format : UTF-8
Codec ID : S_TEXT/UTF8
Codec ID/Info : UTF-8 Plain Text
Language : English
Default : Yes
Forced : No