Telecharger La petite reine [BLURAY 720p] French

BLURAY 720p | FRENCH

La petite reine

La petite reine

La petite reine

Origine du film : Québecois
Réalisateur : Alexis Durand-Brault
Acteurs : Laurence Leboeuf, Patrice Robitaille, Sébastien Delorme
Genre : Drame
Année de production : 2014

La petite reine

Julie, vedette du cyclisme, est à deux courses de gagner la Coupe du monde. C’est l’aboutissement d’années d’effort. Julie aime les projecteurs. Son entourage aussi. Encouragée par son entraîneur et son médecin, elle se dope depuis l’âge de 14 ans. Quand son docteur la dénonce, elle réussit à étouffer l’affaire, mais mesure l’ampleur du gâchis… Abus. Mensonge.Trahison. Prise dans un engrenage qui la dépasse, va-t-elle réussir à trouver une porte de sortie ?
60051″ style= »display:inline; »>

La petite reine

Qualité : BLURAY 720p
Format : MKV
Langue : Français
Nombre de fichiers : 4 Fichiers
Taille des fichiers : 1000 Mo + 328 Mo

La petite reine

Ps: Les liens sont interchangeables, prenez une partie de chaque hébergeur pour télécharger plusieurs fichiers en même temps.

La.Petite.Reine.2014.VFQ.720p.BluRay-BiGJo ( 3328 Mo)

Uptobox
Télécharger

Uplea
Télécharger

1fichier
Télécharger

Uploaded
Télécharger

Rapidgator
Télécharger

TurboBit
Télécharger

1 Lien Premium

Uptobox
Télécharger

Uplea
Télécharger

1fichier
Télécharger

Uploaded
Télécharger

TurboBit
Télécharger

NFO :

Afficher / Masquer le texte 06c74679e43dd8f95d3d2ad973c6b4b4″ class= »text_spoiler » style= »display:none; »>General
Complete name : La Petite Reine 2014 VFQ 720p BluRay MKV x264 BiGJo.mkv
Format : Matroska
Format version : Version 1
File size : 3.25 GiB
Duration : 1h 48mn
Overall bit rate : 4 285 Kbps
Encoded date : UTC 2014-10-02 14:13:36
Writing application : AVSMatroskaFile
Writing library : libebml v0.7.7 + libmatroska v0.8.1

Video
ID : 1
Format : AVC
Format/Info : Advanced Video Codec
Format profile : [email protected]
Format settings, CABAC : Yes
Format settings, ReFrames : 2 frames
Codec ID : V_MPEG4/ISO/AVC
Duration : 1h 48mn
Bit rate : 3 879 Kbps
Width : 1 280 pixels
Height : 720 pixels
Display aspect ratio : 16:9
Frame rate mode : Constant
Frame rate : 29.970 fps
Color space : YUV
Chroma subsampling : 4:2:0
Bit depth : 8 bits
Scan type : Progressive
Bits/(Pixel*Frame) : 0.140
Stream size : 2.94 GiB (91%)
Default : Yes
Forced : No

Audio
ID : 2
Format : MPEG Audio
Format version : Version 1
Format profile : Layer 3
Codec ID : A_MPEG/L3
Codec ID/Hint : MP3
Duration : 1h 48mn
Bit rate mode : Constant
Bit rate : 320 Kbps
Channel(s) : 2 channels
Sampling rate : 44.1 KHz
Compression mode : Lossy
Stream size : 249 MiB (7%)
Writing library : LAMELAME_MAJOR_VERSI
Default : Yes
Forced : No