Télécharger La Porte dans le noir (TV) French

(TRUEFRENCH = Vraie voix française)

Qualité DVDRiP | TRUEFRENCH

La Porte dans le noir (TV)

La Porte dans le noir (TV)

La Porte dans le noir (TV)

Origine du film : Canadien
Réalisateur : George Mendeluk
Acteurs : Duncan Regehr, Amber Borycki, Chad Cole
Genre : Drame
Durée : 1h 55min
Année de production : 2008
Titre Original : Nightmare at the End of the Hall (TV)
Note spectateurs : La Porte dans le noir (TV) 2,7/5 (21)

La Porte dans le noir (TV)

Courtney a été étudiante à la Douglas Academy Boarding School, il y a 17 ans. Elle y retourne en tant qu’enseignante et retrouve avec plaisir le même directeur, ainsi que son fils, Brett, bien changé depuis leur adolescence. Parmi les élèves, elle remarque bien vite la jeune Laurel, qui est le parfait sosie de Jane, sa meilleure amie mystérieusement disparue durant leur scolarité dans l’établissement. Laurel est la proie de visions et de phénomènes inquiétants…

Nom de la release : Nightmare.At.The.End.Of.The.Hall.2010.French.DVDRiP.XViD-DaBzA77 25753″ style= »display:inline; »>

La Porte dans le noir (TV)

Qualité : DVDRiP
Format : XviD
Langue : Français
Taille totale : 700 Mo

La Porte dans le noir (TV)

1fichier.com
Télécharger

Uploaded
Télécharger

TurboBit
Télécharger

Rapidgator
Télécharger

Uptobox.com
Télécharger

Free
Télécharger

NFO :

Afficher / Masquer le texte 2c32cfee02aef6444c0df027bc2997f6″ class= »text_spoiler » style= »display:none; »>General
Complete name : Nightmare.At.The.End.Of.The.Hall.2010.French.DVDRiP.XViD-DaBzA77.avi
Format : AVI
Format/Info : Audio Video Interleave
File size : 700 MiB
Duration : 1h 25mn
Overall bit rate : 1 139 Kbps
Writing application : VirtualDubMod 1.5.4.1 (build 2178/release)
Writing library : VirtualDubMod build 2178/release

Video
ID : 0
Format : MPEG-4 Visual
Format profile : Advanced [email protected]
Format settings, BVOP : 1
Format settings, QPel : No
Format settings, GMC : No warppoints
Format settings, Matrix : Custom
Codec ID : XVID
Codec ID/Hint : XviD
Duration : 1h 25mn
Bit rate : 1 027 Kbps
Width : 720 pixels
Height : 416 pixels
Display aspect ratio : 16:9
Frame rate : 25.000 fps
Color space : YUV
Chroma subsampling : 4:2:0
Bit depth : 8 bits
Scan type : Progressive
Compression mode : Lossy
Bits/(Pixel*Frame) : 0.137
Stream size : 631 MiB (90%)
Writing library : XviD 1.2.1 (UTC 2008-12-04)

Audio
ID : 1
Format : MPEG Audio
Format version : Version 1
Format profile : Layer 3
Mode : Joint stereo
Mode extension : MS Stereo
Codec ID : 55
Codec ID/Hint : MP3
Duration : 1h 25mn
Bit rate mode : Variable
Bit rate : 99.3 Kbps
Channel(s) : 2 channels
Sampling rate : 48.0 KHz
Compression mode : Lossy
Stream size : 61.0 MiB (9%)
Alignment : Aligned on interleaves
Interleave, duration : 24 ms (0.60 video frame)
Interleave, preload duration : 162 ms
Writing library : LAME3.98.2
Language : French

Jeux Gratuit
15354131_1854970838071206_1069261547_o.png