Telecharger La Rose pourpre du Caire [DVDRiP] French

Qualité DVDRiP | FRENCH & VOSTFR

La Rose pourpre du Caire

La Rose pourpre du Caire

La Rose pourpre du Caire

Origine du film : Américain
Réalisateur : Woody Allen
Acteurs : Mia Farrow, Jeff Daniels, Danny Aiello
Genre : Comédie
Durée : 1h 25min
Date de sortie : 29 mai 1985
Année de production : 1985
Titre Original : The Purple Rose of Cairo
Note spectateurs : La Rose pourpre du Caire

; »>3,8/5 (1 422)
Bande annonce :

a1585c1c3cafa12fdffe62c3f393a061

19427387″>Cliquez-ici pour voir la bande annonce a1585c1c3cafa12fdffe62c3f393a061″> 19427387

a1585c1c3cafa12fdffe62c3f393a061

La Rose pourpre du Caire

Cecilia mène une existence morne et tourmentée. Le cinéma est son seul refuge et sa seule évasion. Lors d'une projection, Tom Baxter, le héros d'un mélo la Rose pourpre du Caire sort de l'écran et l'enlève. 27500″ style= »display:inline; »>

Qualité : DVDRiP
Langue : Français & Anglais (STFR)
Taille totale : 700 Mo

La Rose pourpre du Caire (Woody Allen) FRENCH

1fichier
Télécharger

Uptobox
Télécharger

Free
Télécharger

Uploaded
Télécharger

Rapidgator
Télécharger

TurboBit
Télécharger

Mega
Télécharger

NFO :

Afficher / Masquer le texte 0e0730c1ab605c6fa54c94c2a33a6cda » class= »text_spoiler » style= »display:none; »>Format : AVI
Format/Info : Audio Video Interleave
File size : 702 MiB
Duration : 1h 18mn
Overall bit rate : 1 250 Kbps
Writing application : VirtualDubMod 1.5.10.2 (build 2542/release)
Writing library : VirtualDubMod build 2542/release

Video
ID : 0
Format : MPEG-4 Visual
Format profile : Advanced [email protected]
Format settings, BVOP : 1
Format settings, QPel : No
Format settings, GMC : No warppoints
Format settings, Matrix : Default (H.263)
Muxing mode : Packed bitstream
Codec ID : XVID
Codec ID/Hint : XviD
Duration : 1h 18mn
Bit rate : 1 012 Kbps
Width : 712 pixels
Height : 384 pixels
Display aspect ratio : 1.85:1
Frame rate : 25.000 fps
Color space : YUV
Chroma subsampling : 4:2:0
Bit depth : 8 bits
Scan type : Progressive
Compression mode : Lossy
Bits/(Pixel*Frame) : 0.148
Stream size : 568 MiB (81%)
Writing library : XviD 64

Audio #1
ID : 1
Format : MPEG Audio
Format version : Version 1
Format profile : Layer 3
Codec ID : 55
Codec ID/Hint : MP3
Duration : 1h 18mn
Bit rate mode : Constant
Bit rate : 112 Kbps
Channel(s) : 1 channel
Sampling rate : 44.1 KHz
Compression mode : Lossy
Stream size : 62.9 MiB (9%)
Alignment : Split accross interleaves
Interleave, duration : 40 ms (1.00 video frame)
Interleave, preload duration : 500 ms
Writing library : LAME3.92
Encoding settings : -m m -V 4 -q 5 -lowpass 19.4 -b 112

Audio #2
ID : 2
Format : MPEG Audio
Format version : Version 1
Format profile : Layer 3
Codec ID : 55
Codec ID/Hint : MP3
Duration : 1h 18mn
Bit rate mode : Constant
Bit rate : 112 Kbps
Channel(s) : 1 channel
Sampling rate : 48.0 KHz
Compression mode : Lossy
Stream size : 62.9 MiB (9%)
Alignment : Aligned on interleaves
Interleave, duration : 40 ms (1.00 video frame)
Interleave, preload duration : 504 ms
Writing library : LAME3.92
Encoding settings : -m m -V 4 -q 2 -lowpass 19.3 -b 112

La Rose pourpre du Caire (Woody Allen) VOSTFR

1fichier
Télécharger

Uptobox
Télécharger

Free
Télécharger

Uploaded
Télécharger

Rapidgator
Télécharger

TurboBit
Télécharger

Mega
Télécharger

NFO :

Afficher / Masquer le texte c349981292fbb0584609ea90190da038″ class= »text_spoiler » style= »display:none; »>
Format : AVI
Format/Info : Audio Video Interleave
File size : 700 MiB
Duration : 1h 18mn
Overall bit rate : 1 247 Kbps
Writing application : FairUse Wizard – http://fairusewizard.com
Writing library : The best and REALLY easy backup tool

Video
ID : 0
Format : MPEG-4 Visual
Format profile : Advanced [email protected]
Format settings, BVOP : 1
Format settings, QPel : No
Format settings, GMC : No warppoints
Format settings, Matrix : Default (MPEG)
Muxing mode : Packed bitstream
Codec ID : XVID
Codec ID/Hint : XviD
Duration : 1h 18mn
Bit rate : 1 109 Kbps
Width : 688 pixels
Height : 384 pixels
Display aspect ratio : 16:9
Frame rate : 25.000 fps
Color space : YUV
Chroma subsampling : 4:2:0
Bit depth : 8 bits
Scan type : Progressive
Compression mode : Lossy
Bits/(Pixel*Frame) : 0.168
Stream size : 623 MiB (89%)
Writing library : XviD 1.2.0.dev47 (UTC 2006-11-01)

Audio
ID : 1
Format : MPEG Audio
Format version : Version 1
Format profile : Layer 3
Mode : Joint stereo
Mode extension : MS Stereo
Codec ID : 55
Codec ID/Hint : MP3
Duration : 1h 18mn
Bit rate mode : Constant
Bit rate : 128 Kbps
Channel(s) : 2 channels
Sampling rate : 48.0 KHz
Compression mode : Lossy
Stream size : 71.9 MiB (10%)
Alignment : Aligned on interleaves
Interleave, duration : 40 ms (1.00 video frame)
Interleave, preload duration : 504 ms
Writing library : LAME3.97b
Encoding settings : -m j -V 4 -q 2 -lowpass 17 -b 128

Jeux Gratuit
15354131_1854970838071206_1069261547_o.png