Telecharger La Stratégie Ender [BLURAY 720p] French

BLURAY 720p | FRENCH

La Stratégie Ender

La Stratégie Ender

La Stratégie Ender

Origine du film : Américain
Réalisateur : Gavin Hood
Acteurs : Harrison Ford, Asa Butterfield, Hailee Steinfeld
Genre : Science fiction, Action
Durée : 1h54min
Date de sortie : 6 novembre 2013
Année de production : 2013
Titre Original : Ender's Game
Distribué par : Metropolitan FilmExport
Note presse : La Stratégie Ender 2,5/5
Note spectateurs : La Stratégie Ender

; »>3,6/5 (2 292)
Bande annonce :

85f41fa574d5a26ca6c006b3bf08a8ef

19536900″>Cliquez-ici pour voir la bande annonce 85f41fa574d5a26ca6c006b3bf08a8ef »> 19536900

85f41fa574d5a26ca6c006b3bf08a8ef

La Stratégie Ender

Dans un futur proche, une espèce extraterrestre hostile, les Doryphores, ont attaqué la Terre. Sans l’héroïsme de Mazer Rackham, le commandant de la Flotte Internationale, le combat aurait été perdu. Depuis, le très respecté colonel Graff et les forces militaires terriennes entraînent les meilleurs jeunes esprits pour former des officiers émérites et découvrir dans leurs rangs celui qui pourra contrer la prochaine attaque. Ender Wiggin, un garçon timide mais doté d’une exceptionnelle intelligence tactique, est sélectionné pour rejoindre l’élite. A l’académie, Ender apprend rapidement à maîtriser des manoeuvres militaires de plus en plus difficiles où son sens de la stratégie fait merveille. Graff ne tarde pas à le considérer comme le meilleur élément et le plus grand espoir de l’humanité. Il ne lui manque plus qu’à être formé par Mazer Rackham lui-même, pour pouvoir commander la Flotte lors d’une bataille homérique qui décidera du sort de la Terre. 46010″ style= »display:inline; »>

La Stratégie Ender

Qualité : BLURAY 720p
Format : MKV
Langue : Français
Sous-titre : Français
Nombre de fichiers : 5 Fichiers
Taille des fichiers : 1000 Mo + 465 Mo

La Stratégie Ender

Ps: Les liens sont interchangeables, prenez une partie de chaque hébergeur pour télécharger plusieurs fichiers en même temps. smile

Enders.Game.2013.FRENCH.720p.BluRay.AC3.x264 ( 4465 Mo)

1fichier
Télécharger

Uptobox
Télécharger

Free
Télécharger

Uploaded
Télécharger

Rapidgator
Télécharger

TurboBit
Télécharger

1 Lien Premium – 4.4 Go

1fichier Premium
Télécharger

Uptobox Premium
Télécharger

Uploaded Premium
Télécharger

TurboBit Premium
Télécharger

NFO :

Afficher / Masquer le texte cf9fc780f3cfe97ba7a9cf9185d4e45f » class= »text_spoiler » style= »display:none; »> General
Unique ID : 196724649806869366145335749133667051946 (0x93FFCA1537060F4CBDE2887F3342A9AA)
Complete name : Enders.Game.2013.FRENCH.720p.BluRay.AC3.x264.mkv
Format : Matroska
Format version : Version 4 / Version 2
File size : 4.36 GiB
Duration : 1h 53mn
Overall bit rate : 5 485 Kbps
Encoded date : UTC 2014-02-09 15:19:14
Writing application : mkvmerge v6.7.0 (‘Back to the Ground’) 64bit built on Jan 8 2014 15:10:52
Writing library : libebml v1.3.0 + libmatroska v1.4.1

Video
ID : 1
Format : AVC
Format/Info : Advanced Video Codec
Format profile : [email protected]
Format settings, CABAC : Yes
Format settings, ReFrames : 5 frames
Codec ID : V_MPEG4/ISO/AVC
Duration : 1h 53mn
Bit rate : 4 805 Kbps
Width : 1 280 pixels
Height : 536 pixels
Display aspect ratio : 2.40:1
Frame rate mode : Constant
Frame rate : 23.976 fps
Color space : YUV
Chroma subsampling : 4:2:0
Bit depth : 8 bits
Scan type : Progressive
Bits/(Pixel*Frame) : 0.292
Stream size : 3.76 GiB (86%)
Title : Enders.Game.2013.FRENCH.720p.BluRay.AC3.x264
Writing library : x264 core 138 r2358 9e941d1
Encoding settings : cabac=1 / ref=5 / deblock=1:-2:-2 / analyse=0x3:0x113 / me=hex / subme=9 / psy=1 / psy_rd=1.00:0.00 / mixed_ref=1 / me_range=16 / chroma_me=1 / trellis=1 / 8x8dct=1 / cqm=0 / deadzone=21,11 / fast_pskip=1 / chroma_qp_offset=-2 / threads=12 / lookahead_threads=1 / sliced_threads=0 / nr=0 / decimate=1 / interlaced=0 / bluray_compat=0 / stitchable=1 / constrained_intra=0 / bframes=3 / b_pyramid=2 / b_adapt=2 / b_bias=0 / direct=2 / weightb=1 / open_gop=0 / weightp=2 / keyint=240 / keyint_min=23 / scenecut=40 / intra_refresh=0 / rc_lookahead=50 / rc=2pass / mbtree=1 / bitrate=4805 / ratetol=1.0 / qcomp=0.60 / qpmin=10 / qpmax=69 / qpstep=4 / cplxblur=20.0 / qblur=0.5 / vbv_maxrate=14000 / vbv_bufsize=14500 / nal_hrd=none / ip_ratio=1.40 / aq=1:1.00
Default : Yes
Forced : Yes
Matrix coefficients : BT.709

Audio
ID : 2
Format : AC-3
Format/Info : Audio Coding 3
Mode extension : CM (complete main)
Format settings, Endianness : Big
Codec ID : A_AC3
Duration : 1h 53mn
Bit rate mode : Constant
Bit rate : 640 Kbps
Channel(s) : 6 channels
Channel positions : Front: L C R, Side: L R, LFE
Sampling rate : 48.0 KHz
Bit depth : 16 bits
Compression mode : Lossy
Stream size : 521 MiB (12%)
Title : AC3 5.1 @ 640 Kbps
Language : French
Default : Yes
Forced : Yes

Text
ID : 3
Format : UTF-8
Codec ID : S_TEXT/UTF8
Codec ID/Info : UTF-8 Plain Text
Title : Z1 Forced
Language : French
Default : Yes
Forced : Yes

Menu
00:00:00.000 : en:Chapter 1
00:06:10.578 : en:Chapter 2
00:14:18.566 : en:Chapter 3
00:19:06.145 : en:Chapter 4
01:55:51.476 : en:Chapter 5
02:01:07.000 : en:Chapter 6
02:07:18.996 : en:Chapter 7
02:13:27.740 : en:Chapter 8
02:21:22.047 : en:Chapter 9