Telecharger La Traversée de Paris [DVDRiP] French

Qualité BLURAY 720p | FRENCH | son DTS

La Traversée de Paris

La Traversée de Paris

Origine du film : Français, Italien
Réalisateur : Claude Autant-Lara
Acteurs : Jean Gabin, Bourvil, Louis de Funès
Genre : Comédie dramatique
Durée : 1h22min
Date de sortie : 20 novembre 1956
Année de production : 1956
Note spectateurs : La Traversée de Paris

; »>4/5 (4 082)
Bande annonce :

16f7fd2bd938d2b6de7ed3ecf34ccdc9

19441211″>Cliquez-ici pour voir la bande annonce 16f7fd2bd938d2b6de7ed3ecf34ccdc9″> 19441211

16f7fd2bd938d2b6de7ed3ecf34ccdc9

La Traversée de Paris

Sous l’Occupation, Martin, brave homme au chômage, doit convoyer à l’autre bout de Paris quatre valises pleines de porc. Son acolyte habituel ayant été arrêté, il fait appel à un inconnu, Grandgil. Mais celui-ci se révèle vite incontrôlable et le trajet périlleux. Au terme de leur périple, Martin découvrira que Grandgil est un peintre connu qui s’est offert le luxe d’une petite aventure. Ils finiront par se faire arrêter et Martin paiera seul le prix de cette traversée.
99124″ style= »display:inline; »>

La Traversée de Paris

Format : MKV
Découpé avec : Winrar

La Traversée de Paris

La.traversee.de.Paris.1956.FRENCH.720p.BluRay.x264-NOTAG

(4039 Mo)

[Liens Interchangeables entre hébergeurs: 4x 1000 Mo + 1x 39 Mo]

Uptobox
Télécharger

Uplea
Télécharger

1fichier
Télécharger

Uploaded
Télécharger

Rapidgator
Télécharger

TurboBit
Télécharger

[ Liens Premium ]

Uptobox
Télécharger

Uplea
Télécharger

1fichier
Télécharger

Uploaded
Télécharger

TurboBit
Télécharger

NFO :

Afficher / Masquer le texte 8b1e4a2c6e28eb1d245c2460244ed27b » class= »text_spoiler » style= »display:none; »>La.traversee.de.Paris.1956.FRENCH.720p.BluRay.x264-NOTAG.zone-telechargement.com.mkv
Format : Matroska
Format version : Version 4 / Version 2
File size : 3.94 GiB
Duration : 1h 23mn
Overall bit rate : 6 785 Kbps
Encoded date : UTC 2015-09-30 04:37:52
Writing application : mkvmerge v8.4.0 (‘A better way to fly’) 64bit
Writing library : libebml v1.3.1 + libmatroska v1.4.2
DURATION : 01:23:14.006000000
NUMBER_OF_FRAMES : 468188
NUMBER_OF_BYTES : 479424512
_STATISTICS_WRITING_APP : mkvmerge v8.4.0 (‘A better way to fly’) 64bit
_STATISTICS_WRITING_DATE_UT : 2015-09-30 04:37:52
_STATISTICS_TAGS : BPS DURATION NUMBER_OF_FRAMES NUMBER_OF_BYTES

Video
ID : 1
Format : AVC
Format/Info : Advanced Video Codec
Format profile : [email protected]
Format settings, CABAC : Yes
Format settings, ReFrames : 6 frames
Codec ID : V_MPEG4/ISO/AVC
Duration : 1h 23mn
Bit rate : 5 882 Kbps
Width : 960 pixels
Height : 720 pixels
Display aspect ratio : 4:3
Frame rate mode : Constant
Frame rate : 24.000 fps
Color space : YUV
Chroma subsampling : 4:2:0
Bit depth : 8 bits
Scan type : Progressive
Bits/(Pixel*Frame) : 0.355
Stream size : 3.42 GiB (87%)
Title : La traversée de Paris (1956) – Release for HDCLUB
Writing library : x264 core 114 r1913 5fd3dce
Encoding settings : cabac=1 / ref=6 / deblock=1:-3:-3 / analyse=0x3:0x113 / me=umh / subme=9 / psy=1 / psy_rd=1.00:0.00 / mixed_ref=1 / me_range=32 / chroma_me=1 / trellis=2 / 8x8dct=1 / cqm=0 / deadzone=21,11 / fast_pskip=0 / chroma_qp_offset=-2 / threads=6 / sliced_threads=0 / nr=0 / decimate=1 / interlaced=0 / constrained_intra=0 / bframes=7 / b_pyramid=2 / b_adapt=2 / b_bias=0 / direct=1 / weightb=1 / open_gop=0 / weightp=2 / keyint=250 / keyint_min=24 / scenecut=40 / intra_refresh=0 / rc_lookahead=60 / rc=crf / mbtree=0 / crf=17.4 / qcomp=0.60 / qpmin=10 / qpmax=51 / qpstep=4 / vbv_maxrate=50000 / vbv_bufsize=62500 / crf_max=0.0 / nal_hrd=none / ip_ratio=1.40 / pb_ratio=1.30 / aq=1:0.80
Language : French
Default : Yes
Forced : No
DURATION : 01:23:14.000000000
NUMBER_OF_FRAMES : 119856
NUMBER_OF_BYTES : 3754882634
_STATISTICS_WRITING_APP : mkvmerge v8.4.0 (‘A better way to fly’) 64bit
_STATISTICS_WRITING_DATE_UT : 2015-09-30 04:37:52
_STATISTICS_TAGS : BPS DURATION NUMBER_OF_FRAMES NUMBER_OF_BYTES

Audio
ID : 2
Format : DTS
Format/Info : Digital Theater Systems
Mode : 16
Format settings, Endianness : Big
Codec ID : A_DTS
Duration : 1h 23mn
Bit rate mode : Constant
Bit rate : 768 Kbps
Channel(s) : 1 channel
Channel positions : Front: C
Sampling rate : 48.0 KHz
Bit depth : 24 bits
Compression mode : Lossy
Stream size : 457 MiB (11%)
Title : DTS 1.0ch 755 kbps
Language : French
Default : No
Forced : No

Menu
00:00:00.000 : fr:Chapter 1
00:07:15.125 : fr:Chapter 2
00:20:02.958 : fr:Chapter 3
00:27:41.917 : fr:Chapter 4
00:31:33.500 : fr:Chapter 5
00:38:10.458 : fr:Chapter 6
00:43:13.000 : fr:Chapter 7
00:47:08.500 : fr:Chapter 8
00:56:04.333 : fr:Chapter 9
01:02:31.208 : fr:Chapter 10
01:06:30.333 : fr:Chapter 11
01:19:34.750 : fr:Chapter 12