Telecharger La Vie est belle [DVDRiP] French

Qualité BLURAY 720p | MULTiLANGUES

La Vie est belle

La Vie est belle

Origine du film : Américain
Réalisateur : Frank Capra
Acteurs : James Stewart, Donna Reed, Lionel Barrymore
Genre : Comédie dramatique, Fantastique
Durée : 2h9min
Date de sortie : 10 décembre 1947
Année de production : 1946
Titre Original : It’s a Wonderful Life
Distribué par : Swashbuckler Films
Note presse : La Vie est belle 5,0/5
Note spectateurs : La Vie est belle

; »>4,2/5 (5 120)
Bande annonce :

1502f5a73e45ca04348df3d2467af84d

19420562″>Cliquez-ici pour voir la bande annonce 1502f5a73e45ca04348df3d2467af84d »> 19420562

1502f5a73e45ca04348df3d2467af84d

La Vie est belle

Le décès de son père oblige un homme à reprendre l’entreprise familiale de prêts à la construction, qui permet aux plus déshérités de se loger. Il entre en conflit avec l’homme le plus riche de la ville, qui tente de ruiner ses efforts. Au moment où il approche de la victoire, il égare les 8 000 dollars qu’il devait déposer en banque. Le soir de Noël, désespéré, il songe au suicide. C’est alors que le Ciel dépêche à ses côtés un ange de seconde classe, qui pour gagner ses ailes devra l’aider à sortir de cette mauvaise passe…
94235″ style= »display:inline; »>

La Vie est belle

Format : MKV
Découpé avec : Winrar

La Vie est belle

La.Vie.Est.Belle.Colorized.Version.1946.720p.BluRay.MULTi-EbP

(4657 Mo)

[Liens Interchangeables entre hébergeurs (5liens): 4x 998 Mo + 1x 665 Mo]

Uptobox
Télécharger

Uplea
Télécharger

1fichier
Télécharger

Uploaded
Télécharger

Rapidgator
Télécharger

TurboBit
Télécharger

[ Télécharger le film en 1 lien Premium – 4,5 Go]

Uptobox.com Premium
Télécharger

Uplea Premium
Télécharger

1fichier.com
Télécharger

Uploaded Premium
Télécharger

TurboBit.net Premium
Télécharger

NFO :

Afficher / Masquer le texte 70790f5f3b160a55ab0f18c846ce9c8d » class= »text_spoiler » style= »display:none; »>ormat : Matroska
Format version : Version 2
File size : 4.55 GiB
Duration : 2h 10mn
Overall bit rate : 4 975 Kbps
Movie name : JoseyW – La vie est belle
Encoded date : UTC 2013-07-10 11:34:24
Writing application : mkvmerge v3.0.0 (‘Hang up your Hang-Ups’) built on Dec 27 2009 20:29:00
Writing library : libebml v0.7.8 + libmatroska v0.8.1

Video
ID : 1
Format : AVC
Format/Info : Advanced Video Codec
Format profile : [email protected]
Format settings, CABAC : Yes
Format settings, ReFrames : 5 frames
Codec ID : V_MPEG4/ISO/AVC
Duration : 2h 10mn
Bit rate : 4 557 Kbps
Width : 960 pixels
Height : 720 pixels
Display aspect ratio : 4:3
Frame rate mode : Constant
Frame rate : 23.976 fps
Color space : YUV
Chroma subsampling : 4:2:0
Bit depth : 8 bits
Scan type : Progressive
Bits/(Pixel*Frame) : 0.275
Stream size : 4.08 GiB (90%)
Title : It’s A Wonderful Life: Colorized Version (1946)
Writing library : x264 core 79 r1342 e8501ef
Encoding settings : cabac=1 / ref=5 / deblock=1:-3:-3 / analyse=0x3:0x113 / me=umh / subme=9 / psy=1 / psy_rd=0.9:0.1 / mixed_ref=1 / me_range=24 / chroma_me=1 / trellis=2 / 8x8dct=1 / cqm=0 / deadzone=21,11 / chroma_qp_offset=-3 / threads=8 / nr=0 / decimate=0 / mbaff=0 / constrained_intra=0 / bframes=5 / b_pyramid=2 / b_adapt=2 / b_bias=0 / direct=3 / wpredb=1 / wpredp=2 / keyint=250 / keyint_min=25 / scenecut=40 / rc=2pass / mbtree=0 / bitrate=4557 / ratetol=1.0 / qcomp=0.60 / qpmin=10 / qpmax=51 / qpstep=4 / cplxblur=20.0 / qblur=0.5 / ip_ratio=1.40 / pb_ratio=1.30 / aq=1:0.70
Language : English
Default : No
Forced : No

Audio #1
ID : 2
Format : AC-3
Format/Info : Audio Coding 3
Mode extension : CM (complete main)
Format settings, Endianness : Big
Codec ID : A_AC3
Duration : 2h 10mn
Bit rate mode : Constant
Bit rate : 192 Kbps
Channel(s) : 2 channels
Channel positions : Front: L R
Sampling rate : 48.0 KHz
Compression mode : Lossy
Stream size : 180 MiB (4%)
Title : AC3 FR
Language : French
Default : No
Forced : No

Audio #2
ID : 3
Format : AC-3
Format/Info : Audio Coding 3
Mode extension : CM (complete main)
Format settings, Endianness : Big
Codec ID : A_AC3
Duration : 2h 10mn
Bit rate mode : Constant
Bit rate : 224 Kbps
Channel(s) : 2 channels
Channel positions : Front: L R
Sampling rate : 48.0 KHz
Compression mode : Lossy
Stream size : 210 MiB (5%)
Title : AC3 EN
Language : English
Default : Yes
Forced : No

Text #1
ID : 4
Format : UTF-8
Codec ID : S_TEXT/UTF8
Codec ID/Info : UTF-8 Plain Text
Title : FR
Language : French
Default : No
Forced : No

Text #2
ID : 5
Format : UTF-8
Codec ID : S_TEXT/UTF8
Codec ID/Info : UTF-8 Plain Text
Title : EN
Language : English
Default : Yes
Forced : No

Menu
00:00:00.000 : en:00:00:00.000
00:03:42.931 : en:00:03:42.931
00:05:24.908 : en:00:05:24.908
00:07:45.840 : en:00:07:45.840
00:11:39.449 : en:00:11:39.449
00:14:16.689 : en:00:14:16.689
00:19:02.767 : en:00:19:02.767
00:21:14.023 : en:00:21:14.023
00:24:03.317 : en:00:24:03.317
00:35:15.613 : en:00:35:15.613

Jeux Gratuit
15354131_1854970838071206_1069261547_o.png