Telecharger L'Agression [DVDRiP] French

(TRUEFRENCH = Vraie voix française)

Qualité DVDRiP | TRUEFRENCH

L'Agression

L'Agression

Origine du film : Français, Italien
Réalisateur : Gérard Pirès
Acteurs : Jean-Louis Trintignant, Catherine Deneuve, Claude Brasseur
Genre : Drame
Durée : 1h43min
Date de sortie : 16 avril 1975
Année de production : 1974
Distribué par : Gaumont
Note spectateurs : L'Agression

; »>2,9/5 (33)

L'Agression

Paul Varlin et sa famille sont sur la route des vacances. En chemin ils se querellent avec des motards qui ont juré de les retrouver.
93345″ style= »display:inline; »>

L'Agression

Format : MP4

L'Agression

(1380 Mo)

Uptobox
Télécharger

Uploaded
Télécharger

TurboBit
Télécharger

Rapidgator
Télécharger

Uplea
Télécharger

1fichier
Télécharger

NFO :

Afficher / Masquer le texte d9e4676fe9bc2d90bb4cbd989c0da7c0″ class= »text_spoiler » style= »display:none; »>L’agression (1975)-Gerard Pires.mp4
Format : MPEG-4
Format profile : Base Media / Version 2
Codec ID : mp42
File size : 1.38 GiB
Duration : 1h 35mn
Overall bit rate mode : Variable
Overall bit rate : 2 065 Kbps

Video
ID : 1
Format : AVC
Format/Info : Advanced Video Codec
Format profile : [email protected]
Format settings, CABAC : Yes
Format settings, ReFrames : 4 frames
Codec ID : avc1
Codec ID/Info : Advanced Video Coding
Duration : 1h 35mn
Bit rate : 1 866 Kbps
Width : 720 pixels
Height : 480 pixels
Display aspect ratio : 3:2
Frame rate mode : Constant
Frame rate : 25.000 fps
Standard : NTSC
Color space : YUV
Chroma subsampling : 4:2:0
Bit depth : 8 bits
Scan type : Progressive
Bits/(Pixel*Frame) : 0.216
Stream size : 1.25 GiB (90%)
Writing library : x264 core 142 r2479 dd79a61

Audio
ID : 2
Format : AAC
Format/Info : Advanced Audio Codec
Format profile : LC
Codec ID : 40
Duration : 1h 35mn
Bit rate mode : Variable
Bit rate : 192 Kbps
Channel(s) : 2 channels
Channel positions : Front: L R
Sampling rate : 48.0 KHz
Compression mode : Lossy
Stream size : 132 MiB (9%)
Title : Stereo / Stereo

Jeux Gratuit
15354131_1854970838071206_1069261547_o.png