Telecharger Land Ho! [BLURAY 720p] French

BLURAY 720p | FRENCH | DTS

Land Ho!

Land Ho!

Land Ho!

Origine du film : Américain, Islandais
Réalisateur : Aaron Katz
Acteurs : Earl Lynn Nelson, Paul Eenhoorn, Alice Olivia Clarke
Genre : Aventure, Comédie
Durée : 1h35min
Année de production : 2014
Bande annonce :

0f1550a89cad7fb23cca05b785ed5ef7

19547754″>Cliquez-ici pour voir la bande annonce 0f1550a89cad7fb23cca05b785ed5ef7″> 19547754

0f1550a89cad7fb23cca05b785ed5ef7

Land Ho!

Deux ex-beaux-frères partent pour l'Islande pour revendiquer leur jeunesse à travers les boîtes de Reykjavik, les spa à la mode et le camping musclé. Cette aventure paillarde est un retour aux road movies des années 1980, ainsi qu'une exploration candide du vieillissement, de la solitude et de l'amitié.
61298″ style= »display:inline; »>

Land Ho!

Qualité : BLURAY 720p
Format : MKV
Langue : Français
Sous-titre : Français
Nombre de fichiers : 5 Fichiers
Taille des fichiers : 1000 Mo + 471 Mo

Land Ho!

Ps: Les liens sont interchangeables, prenez une partie de chaque hébergeur pour télécharger plusieurs fichiers en même temps.

Land.Ho.2014.LIMITED.FRENCH.720p.BluRay.x264.DTS-ONESHOT ( 4471 Mo)

Uptobox
Télécharger

Uplea
Télécharger

1fichier
Télécharger

Uploaded
Télécharger

Rapidgator
Télécharger

TurboBit
Télécharger

1 Lien Premium – 4.4 Go

Uptobox Premium
Télécharger

Uplea Premium
Télécharger

1fichier Premium
Télécharger

Uploaded Premium
Télécharger

TurboBit Premium
Télécharger

NFO :

Afficher / Masquer le texte 3cd6c3531ae5195ef10f239c069b0fbd » class= »text_spoiler » style= »display:none; »>General
Unique ID : 204401271079735525272809051470367216804 (0x99C640BBB771179F9D95F922979ED4A4)
Complete name : Land.Ho.2014.LIMITED.FRENCH.720p.BluRay.x264.DTS-ONESHOT.mkv
Format : Matroska
Format version : Version 4 / Version 2
File size : 4.37 GiB
Duration : 1h 35mn
Overall bit rate : 6 571 Kbps
Encoded date : UTC 2014-10-19 10:40:02
Writing application : mkvmerge v7.1.0 (‘Good Love’) 64bit built on Jul 27 2014 13:06:55
Writing library : libebml v1.3.0 + libmatroska v1.4.1
_STATISTICS_WRITING_APP : mkvmerge v7.1.0 (‘Good Love’) 64bit built on Jul 27 2014 13:06:55
_STATISTICS_WRITING_DATE_UTC : 2014-10-19 10:40:02
_STATISTICS_TAGS : BPS DURATION NUMBER_OF_FRAMES NUMBER_OF_BYTES
DURATION : 00:00:06.005000000
NUMBER_OF_FRAMES : 1
NUMBER_OF_BYTES : 14

Video
ID : 1
Format : AVC
Format/Info : Advanced Video Codec
Format profile : [email protected]
Format settings, CABAC : Yes
Format settings, ReFrames : 5 frames
Codec ID : V_MPEG4/ISO/AVC
Duration : 1h 35mn
Bit rate : 5 062 Kbps
Width : 1 280 pixels
Height : 720 pixels
Display aspect ratio : 16:9
Frame rate mode : Constant
Frame rate : 23.976 fps
Color space : YUV
Chroma subsampling : 4:2:0
Bit depth : 8 bits
Scan type : Progressive
Bits/(Pixel*Frame) : 0.229
Stream size : 3.28 GiB (75%)
Writing library : x264 core 142 r2479 dd79a61
Encoding settings : cabac=1 / ref=5 / deblock=1:0:0 / analyse=0x3:0x133 / me=umh / subme=7 / psy=1 / psy_rd=1.00:0.00 / mixed_ref=1 / me_range=16 / chroma_me=1 / trellis=1 / 8x8dct=1 / cqm=0 / deadzone=21,11 / fast_pskip=0 / chroma_qp_offset=-2 / threads=18 / lookahead_threads=3 / sliced_threads=0 / nr=0 / decimate=1 / interlaced=0 / bluray_compat=0 / constrained_intra=0 / bframes=3 / b_pyramid=2 / b_adapt=1 / b_bias=0 / direct=1 / weightb=1 / open_gop=0 / weightp=2 / keyint=250 / keyint_min=23 / scenecut=40 / intra_refresh=0 / rc_lookahead=40 / rc=2pass / mbtree=1 / bitrate=5062 / ratetol=1.0 / qcomp=0.60 / qpmin=0 / qpmax=69 / qpstep=4 / cplxblur=20.0 / qblur=0.5 / ip_ratio=1.40 / aq=1:1.00
Language : English
Default : Yes
Forced : No
_STATISTICS_WRITING_APP : mkvmerge v7.1.0 (‘Good Love’) 64bit built on Jul 27 2014 13:06:55
_STATISTICS_WRITING_DATE_UTC : 2014-10-19 10:40:02
_STATISTICS_TAGS : BPS DURATION NUMBER_OF_FRAMES NUMBER_OF_BYTES
DURATION : 01:35:08.671000000
NUMBER_OF_FRAMES : 136871
NUMBER_OF_BYTES : 3610624035

Audio
ID : 2
Format : DTS
Format/Info : Digital Theater Systems
Mode : 16
Format settings, Endianness : Big
Codec ID : A_DTS
Duration : 1h 35mn
Bit rate mode : Constant
Bit rate : 1 509 Kbps
Channel(s) : 6 channels
Channel positions : Front: L C R, Side: L R, LFE
Sampling rate : 48.0 KHz
Bit depth : 24 bits
Compression mode : Lossy
Stream size : 1.00 GiB (23%)
Title : DTS 5.1 1509 Kbps
Language : French
Default : Yes
Forced : No

Text
ID : 3
Format : UTF-8
Codec ID : S_TEXT/UTF8
Codec ID/Info : UTF-8 Plain Text
Title : Fcd
Language : French
Default : Yes
Forced : No

Menu
00:00:00.000 : en:00:00:00.000
00:05:51.101 : en:00:05:51.101
00:14:32.038 : en:00:14:32.038
00:20:28.727 : en:00:20:28.727
00:25:08.090 : en:00:25:08.090
00:31:11.578 : en:00:31:11.578
00:37:09.727 : en:00:37:09.727
00:42:31.174 : en:00:42:31.174
00:48:55.641 : en:00:48:55.641
00:54:39.276 : en:00:54:39.276
01:00:14.986 : en:01:00:14.986
01:05:03.942 : en:01:05:03.942
01:11:54.977 : en:01:11:54.977
01:18:10.019 : en:01:18:10.019
01:22:58.223 : en:01:22:58.223
01:26:36.274 : en:01:26:36.274

Jeux Gratuit
15354131_1854970838071206_1069261547_o.png