Telecharger L'Art d'aimer [BLURAY 720p] French

BLURAY 720p | FRENCH | DTS

L'Art d'aimer

L'Art d'aimer

L'Art d'aimer

Origine du film : Français
Réalisateur : Emmanuel Mouret
Acteurs : François Cluzet, Julie Depardieu, Ariane Ascaride
Genre : Comédie
Durée : 1h 25min
Date de sortie : 23 novembre 2011
Année de production : 2011
Distribué par : Pyramide Distribution
Note presse : L'Art d'aimer 3,2/5
Note spectateurs : L'Art d'aimer 3/5 (599)
Bande annonce :

c4023ddbd6a1a493c93b9e6ecb865419

19250442″>Cliquez-ici pour voir la bande annonce c4023ddbd6a1a493c93b9e6ecb865419″> 19250442

c4023ddbd6a1a493c93b9e6ecb865419

L'Art d'aimer

Au moment où l’on devient amoureux, à cet instant précis, il se produit en nous une musique particulière. Elle est pour chacun différente et peut survenir à des moments inattendus…

Nom de la release : L.Art.D.aimer.2011.FRENCH.720p.BluRay.x264.DTS-FMS 12148″ style= »display:inline; »>

Qualité : BLURAY 720p
Format : XviD
Langue : Français
Nombre de fichiers : 4 Fichiers
Taille des fichiers : 700 Mo Mo
Taille totale : 700 Mo

[Liens Interchangeables]

Ps: Vous pouvez prendre une partie sur chaque hébergeur, pour télécharger plusieurs fichiers en même temps. smile

TurboBit.net
Télécharger

Uploaded.to
Télécharger

Uptobox.com
Télécharger

[1 Lien – 3,9 Go]

Uploaded.to
Télécharger

Uptobox.com
Télécharger

TurboBit.net
Télécharger

NFO :

Afficher / Masquer le texte 1203c65acae7cfa4893a4ced00def8cd » class= »text_spoiler » style= »display:none; »>General
Complete name : L.Art.D.aimer.2011.FRENCH.720p.BluRay.x264.DTS-FMS.mkv
Format : Matroska
Format version : Version 2
File size : 3.90 GiB
Duration : 1h 25mn
Overall bit rate : 6 532 Kbps
Encoded date : UTC 2012-05-05 05:39:09
Writing application : mkvmerge v3.3.0 ('Language') built on Mar 24 2010 14:59:24
Writing library : libebml v0.8.0 libmatroska v0.9.0

Video
ID : 1
Format : AVC
Format/Info : Advanced Video Codec
Format profile : [email protected]
Format settings, CABAC : Yes
Format settings, ReFrames : 4 frames
Codec ID : V_MPEG4/ISO/AVC
Duration : 1h 25mn
Bit rate : 5 024 Kbps
Width : 1 280 pixels
Height : 720 pixels
Display aspect ratio : 16:9
Frame rate : 23.976 fps
Color space : YUV
Chroma subsampling : 4:2:0
Bit depth : 8 bits
Scan type : Progressive
Bits/(Pixel*Frame) : 0.227
Stream size : 2.92 GiB (75%)
Title : FMS
Writing library : x264 core 120 r2164 da19765
Encoding settings : cabac=1 / ref=3 / deblock=1:0:0 / analyse=0x3:0x113 / me=hex / subme=7 / psy=1 / psy_rd=1.00:0.00 / mixed_ref=1 / me_range=16 / chroma_me=1 / trellis=1 / 8x8dct=1 / cqm=0 / deadzone=21,11 / fast_pskip=1 / chroma_qp_offset=-2 / threads=24 / sliced_threads=0 / nr=0 / decimate=1 / interlaced=0 / bluray_compat=0 / constrained_intra=0 / bframes=3 / b_pyramid=2 / b_adapt=1 / b_bias=0 / direct=1 / weightb=1 / open_gop=0 / weightp=2 / keyint=240 / keyint_min=23 / scenecut=40 / intra_refresh=0 / rc_lookahead=40 / rc=2pass / mbtree=1 / bitrate=5024 / ratetol=1.0 / qcomp=0.60 / qpmin=0 / qpmax=69 / qpstep=4 / cplxblur=20.0 / qblur=0.5 / ip_ratio=1.40 / aq=1:1.00
Language : French
Default : Yes
Forced : No

Audio
ID : 2
Format : DTS
Format/Info : Digital Theater Systems
Codec ID : A_DTS
Duration : 1h 25mn
Bit rate mode : Constant
Bit rate : 1 510 Kbps
Channel(s) : 6 channels
Channel positions : Front: L C R, Side: L R, LFE
Sampling rate : 48.0 KHz
Bit depth : 16 bits
Compression mode : Lossy
Stream size : 923 MiB (23%)
Title : DTS 1510 Kbps
Language : French
Default : Yes
Forced : No

Jeux Gratuit
15354131_1854970838071206_1069261547_o.png