Telecharger Last Knights [BLURAY 720p] French

Qualité BLURAY 720p | FRENCH (VFi)

Last Knights

Last Knights

Origine du film : Américain
Réalisateur : Kazuaki Kiriya
Acteurs : Clive Owen, Morgan Freeman, Ayelet Zurer
Genre : Aventure, Action
Durée : 1h38min
Année de production : 2014
Bande annonce :

7f292944ef545445f6a088eab6c34225

19552681″>Cliquez-ici pour voir la bande annonce 7f292944ef545445f6a088eab6c34225″> 19552681

7f292944ef545445f6a088eab6c34225
Last Knights
Au Moyen Âge, dans une vaste contrée multiethnique, le seigneur Bartok est sommé de se rendre au château de l’empereur pour lui rendre hommage. Mais à son arrivée, il froisse l’influent ministre Gezza Mott en refusant de lui verser un pot de vin. S’ensuit un combat au cours duquel Bartok, bien qu’affaibli par une maladie incurable, passe près de tuer le ministre corrompu. Traduit en justice devant l’empereur, le vénérable seigneur est condamné à mort et, à la suggestion de Mott, exécuté par son propre commandant et héritier présomptif, le vaillant Raiden. De retour chez lui, ce dernier, rongé par la culpabilité, renoue avec les démons de l’alcool et repousse son épouse, qui ne le reconnaît plus. Le lieutenant de Raiden, ainsi que ses hommes, n’ont toutefois pas renoncé à se venger de l’infâme Gezza Mott. Lequel, en proie à la paranoïa, a réquisitionné des milliers de soldats pour le défendre.
89585″ style= »display:inline; »>

Last Knights

Format : MKV

Last Knights

Last.Knights.2015.FRENCH.720p.BluRay.x264.AC3-BUITONIO

(4665 Mo)

[Liens Interchangeables entre hébergeurs: 4x 1000 Mo + 1x 665 Mo]

Uptobox
Télécharger

Uplea
Télécharger

1fichier
Télécharger

Uploaded
Télécharger

Rapidgator
Télécharger

TurboBit
Télécharger

1 Lienc – 4.4 Go

Uptobox Premium
Télécharger

Uplea Premium
Télécharger

1fichier Premium
Télécharger

Uploaded Premium
Télécharger

TurboBit Premium
Télécharger

NFO :

Afficher / Masquer le texte 6d30185b2787a7dd62acb4b0d6d04e59″ class= »text_spoiler » style= »display:none; »>General
Unique ID : 90422206705077202909483635012344140210 (0x4406AEFD55CE3F3782904D56150AD1B2)
Complete name : Last.Knights.2015.FRENCH.720p.BluRay.x264.AC3-BUITONIO.mkv
Format : Matroska
Format version : Version 4 / Version 2
File size : 4.56 GiB
Duration : 1h 54mn
Overall bit rate : 5 675 Kbps
Encoded date : UTC 2015-06-22 20:13:41
Writing application : mkvmerge v8.0.0 (‘Til The Day That I Die’) 64bit
Writing library : libebml v1.3.1 + libmatroska v1.4.2

Video
ID : 1
Format : AVC
Format/Info : Advanced Video Codec
Format profile : [email protected]
Format settings, CABAC : Yes
Format settings, ReFrames : 5 frames
Codec ID : V_MPEG4/ISO/AVC
Duration : 1h 54mn
Bit rate : 5 294 Kbps
Width : 1 280 pixels
Height : 536 pixels
Display aspect ratio : 2.40:1
Frame rate mode : Constant
Frame rate : 23.976 fps
Color space : YUV
Chroma subsampling : 4:2:0
Bit depth : 8 bits
Scan type : Progressive
Bits/(Pixel*Frame) : 0.322
Stream size : 4.16 GiB (91%)
Writing library : x264 core 146 r2538 121396c
Encoding settings : cabac=1 / ref=5 / deblock=1:0:0 / analyse=0x3:0x133 / me=umh / subme=7 / psy=1 / psy_rd=1.00:0.00 / mixed_ref=1 / me_range=16 / chroma_me=1 / trellis=1 / 8x8dct=1 / cqm=0 / deadzone=21,11 / fast_pskip=0 / chroma_qp_offset=-2 / threads=60 / lookahead_threads=4 / sliced_threads=0 / nr=0 / decimate=1 / interlaced=0 / bluray_compat=0 / constrained_intra=0 / bframes=3 / b_pyramid=2 / b_adapt=1 / b_bias=0 / direct=1 / weightb=1 / open_gop=0 / weightp=2 / keyint=250 / keyint_min=23 / scenecut=40 / intra_refresh=0 / rc_lookahead=40 / rc=2pass / mbtree=1 / bitrate=5294 / ratetol=1.0 / qcomp=0.60 / qpmin=0 / qpmax=69 / qpstep=4 / cplxblur=20.0 / qblur=0.5 / ip_ratio=1.40 / aq=1:1.00
Language : English
Default : Yes
Forced : No

Audio
ID : 2
Format : AC-3
Format/Info : Audio Coding 3
Mode extension : CM (complete main)
Format settings, Endianness : Big
Codec ID : A_AC3
Duration : 1h 54mn
Bit rate mode : Constant
Bit rate : 384 Kbps
Channel(s) : 6 channels
Channel positions : Front: L C R, Side: L R, LFE
Sampling rate : 48.0 KHz
Bit depth : 16 bits
Compression mode : Lossy
Delay relative to video : 900ms
Stream size : 316 MiB (7%)
Language : French
Default : Yes
Forced : No

Menu
00:00:00.000 : :Chapitre 1
00:08:40.228 : :Chapitre 2
00:13:49.996 : :Chapitre 3
00:20:30.646 : :Chapitre 4
00:25:03.794 : :Chapitre 5
00:36:28.978 : :Chapitre 6
00:41:27.568 : :Chapitre 7
00:47:23.090 : :Chapitre 8
00:55:18.190 : :Chapitre 9
01:02:25.992 : :Chapitre 10
01:09:51.521 : :Chapitre 11
01:16:57.696 : :Chapitre 12
01:24:38.907 : :Chapitre 13
01:28:57.874 : :Chapitre 14
01:37:16.539 : :Chapitre 15
01:42:57.171 : :Chapitre 16