Telecharger Last Vegas [BLURAY 720p] French

BLURAY 720p | MULTiLANGUES

Last Vegas

Last Vegas

Last Vegas

Origine du film : Américain
Réalisateur : Jon Turteltaub
Acteurs : Michael Douglas, Robert De Niro, Morgan Freeman
Genre : Comédie
Durée : 1h45min
Date de sortie : 27 novembre 2013
Année de production : 2013
Distribué par : Universal Pictures International France
Note presse : Last Vegas 2,4/5
Note spectateurs : Last Vegas

; »>3,6/5 (648)
Bande annonce :

401ea2535a1e81b9865a1884c47b35fc

19537942″>Cliquez-ici pour voir la bande annonce 401ea2535a1e81b9865a1884c47b35fc »> 19537942

401ea2535a1e81b9865a1884c47b35fc

Last Vegas

Billy, Paddy, Archie et Sam sont les meilleurs amis du monde depuis… plus d'une soixantaine d'années. Quand Billy, le dernier célibataire de la bande, se décide enfin à demander sa petite amie d'à peine trente ans (bien évidemment !) en mariage, nos quatre über-seniors prennent la direction de Las Vegas avec la ferme intention de ne rien céder au poids des années et d'enterrer la vie de ce garçon (Qui a dit « vieux » ?) dans les règles de l'art. À leur arrivée sur le Strip, force est de constater que le divertissement de masses a pris le pas sur le temple du cool. Mais le Cirque du Soleil peut bien avoir délogé le Rat Pack, notre quatuor est plus que jamais résolu à faire revivre ses heures de gloire à celle qu'on appelle encore la ville de tous les vices. 44578″ style= »display:inline; »>

Qualité : BLURAY 720p
Format : MKV
Langue : Multilangage
Sous-titre : Français
Nombre de fichiers : 5 Fichiers
Taille des fichiers : 1000 Mo 806 Mo

Ps: Les liens sont interchangeables, prenez une partie de chaque hébergeur pour télécharger plusieurs fichiers en même temps. smile

Last.Vegas.2013.MULTi.720p.BluRay.DTS.AC3.x264 ( 4806 Mo)

1fichier
Télécharger

Uptobox
Télécharger

Uploaded
Télécharger

Rapidgator
Télécharger

TurboBit
Télécharger

1 Lien Premium – 4.7 Go

1fichier Premium
Télécharger

Uptobox Premium
Télécharger

Uploaded Premium
Télécharger

TurboBit Premium
Télécharger

NFO :

Afficher / Masquer le texte 30f10daa0cc943b94957978cc64c8d0e » class= »text_spoiler » style= »display:none; »>General
Unique ID : 245981908293691993610290819444745184832 (0xB90E646D834AD262ACAA74F403B82640)
Complete name : Last.Vegas.2013.MULTi.BluRay.DTS.AC3.x264.mkv
Format : Matroska
Format version : Version 4 / Version 2
File size : 4.69 GiB
Duration : 1h 44mn
Overall bit rate : 6 400 Kbps
Encoded date : UTC 2014-01-25 17:31:44
Writing application : mkvmerge v6.7.0 ('Back to the Ground') 64bit built on Jan 8 2014 15:10:52
Writing library : libebml v1.3.0 libmatroska v1.4.1

Video
ID : 1
Format : AVC
Format/Info : Advanced Video Codec
Format profile : [email protected]
Format settings, CABAC : Yes
Format settings, ReFrames : 5 frames
Codec ID : V_MPEG4/ISO/AVC
Duration : 1h 44mn
Bit rate : 4 442 Kbps
Width : 1 280 pixels
Height : 536 pixels
Display aspect ratio : 2.40:1
Frame rate mode : Constant
Frame rate : 23.976 fps
Color space : YUV
Chroma subsampling : 4:2:0
Bit depth : 8 bits
Scan type : Progressive
Bits/(Pixel*Frame) : 0.270
Stream size : 3.17 GiB (67%)
Title : Last.Vegas.2013.MULTi.BluRay.DTS.AC3.x264
Writing library : x264 core 140 r2377 1ca7bb9
Encoding settings : cabac=1 / ref=5 / deblock=1:0:0 / analyse=0x3:0x133 / me=umh / subme=7 / psy=1 / psy_rd=1.00:0.00 / mixed_ref=1 / me_range=16 / chroma_me=1 / trellis=1 / 8x8dct=1 / cqm=0 / deadzone=21,11 / fast_pskip=0 / chroma_qp_offset=-2 / threads=18 / lookahead_threads=3 / sliced_threads=0 / nr=0 / decimate=1 / interlaced=0 / bluray_compat=0 / constrained_intra=0 / bframes=3 / b_pyramid=2 / b_adapt=2 / b_bias=0 / direct=3 / weightb=1 / open_gop=0 / weightp=2 / keyint=250 / keyint_min=23 / scenecut=40 / intra_refresh=0 / rc_lookahead=50 / rc=2pass / mbtree=1 / bitrate=4442 / ratetol=1.0 / qcomp=0.60 / qpmin=0 / qpmax=69 / qpstep=4 / cplxblur=20.0 / qblur=0.5 / ip_ratio=1.40 / aq=1:1.00
Default : Yes
Forced : Yes

Audio #1
ID : 2
Format : DTS
Format/Info : Digital Theater Systems
Mode : 16
Format settings, Endianness : Big
Codec ID : A_DTS
Duration : 1h 44mn
Bit rate mode : Constant
Bit rate : 1 509 Kbps
Channel(s) : 6 channels
Channel positions : Front: L C R, Side: L R, LFE
Sampling rate : 48.0 KHz
Bit depth : 24 bits
Compression mode : Lossy
Stream size : 1.11 GiB (24%)
Title : DTS 5.1 @ 1509 Kbpps
Language : English
Default : Yes
Forced : No

Audio #2
ID : 3
Format : AC-3
Format/Info : Audio Coding 3
Mode extension : CM (complete main)
Format settings, Endianness : Big
Codec ID : A_AC3
Duration : 1h 44mn
Bit rate mode : Constant
Bit rate : 448 Kbps
Channel(s) : 6 channels
Channel positions : Front: L C R, Side: L R, LFE
Sampling rate : 48.0 KHz
Bit depth : 16 bits
Compression mode : Lossy
Delay relative to video : 2s 500ms
Stream size : 336 MiB (7%)
Title : AC3 5.1 @ 448 Kbps
Language : French
Default : No
Forced : No

Text
ID : 4
Format : UTF-8
Codec ID : S_TEXT/UTF8
Codec ID/Info : UTF-8 Plain Text
Title : Full Z1
Language : French
Default : Yes

Jeux Gratuit
15354131_1854970838071206_1069261547_o.png