Telecharger Le Baiser mortel du dragon [BLURAY 720p] French

(TRUEFRENCH = Vraie voix française)

BLURAY 720p | TRUEFRENCH | DTS

Le Baiser mortel du dragon

Le Baiser mortel du dragon

Le Baiser mortel du dragon

Origine du film : Français, américain
Réalisateur : Chris Nahon
Acteurs : Jet Li, Bridget Fonda, Tchéky Karyo
Genre : Arts Martiaux, Action, Thriller
Durée : 1h 38min
Date de sortie : 1 août 2001
Année de production : 2001
Titre Original : Kiss of the Dragon
Distribué par : EuropaCorp Distribution
Note presse : Le Baiser mortel du dragon 2,9/5
Note spectateurs : Le Baiser mortel du dragon 3/5 (3749)
Bande annonce :

cdce8c1677c2fe20e83c8e5eea2faa49

18654962″>Cliquez-ici pour voir la bande annonce cdce8c1677c2fe20e83c8e5eea2faa49″> 18654962

cdce8c1677c2fe20e83c8e5eea2faa49

Le Baiser mortel du dragon

La police française avait besoin de son savoir-faire internationalement reconnu pour arrêter un haut dignitaire chinois corrompu. C'est donc pour prêter main-forte à son collègue Jean-Pierre Richard que Liu Jian, un officier des services secrets de Hong-Kong, s'est rendu à Paris.
Tout était prévu pour une arrestation sans histoire dans la suite du gros bonnet. Mais Liu s'est trompé. L'homme qu'il devait mettre derrière les barreaux vient d'être assassiné sous ses yeux. Et on tente de lui faire porter le chapeau. La seule personne présente sur les lieux du crime et qui pourrait, l'espère-t-il, prouver son innocence est une prostituée américaine.
Derrière ce meurtre se cache en fait un complot international dont Liu est loin de deviner l'ampleur et la gravité. Le voilà maintenant traqué par celui qu'il était venu aider, et ce, dans une ville qui lui est totalement inconnue.

Nom de la release : Kiss.of.the.Dragon.2001.FRENCH.720p.Bluray.x264.DTS.5.1-blondin000 14178″ style= »display:inline; »>

Le Baiser mortel du dragon

Qualité : BLURAY 720p
Format : MKV
Langue : Français
Découpé avec : Winrar
Nombre de fichiers : 4 Fichiers
Taille des fichiers : 1000 Mo 893 Mo
Taille totale : 3893 Mo

Le Baiser mortel du dragon

[4 Liens Interchangeables]


Uptobox.com
Télécharger

1fichier.com
Télécharger

Uploaded
Télécharger

Rapidgator
Télécharger

TurboBit
Télécharger

[1 lien PREMIUM]


Uptobox.com
Télécharger

1fichier.com
Télécharger

Uploaded
Télécharger

Rapidgator
Télécharger

TurboBit
Télécharger

NFO :

Afficher / Masquer le texte 04fadfaebc2f3b82d45dc2af418cd6e7″ class= »text_spoiler » style= »display:none; »>Video
ID : 1
Format : AVC
Format/Info : Advanced Video Codec
Format profile : [email protected]
Format settings, CABAC : Yes
Format settings, ReFrames : 8 frames
Muxing mode : Header stripping
Codec ID : V_MPEG4/ISO/AVC
Duration : 1h 34mn
Bit rate : 4 858 Kbps
Width : 1 280 pixels
Height : 528 pixels
Display aspect ratio : 2.40:1
Frame rate : 25.000 fps
Original frame rate : 23.976 fps
Color space : YUV
Chroma subsampling : 4:2:0
Bit depth : 8 bits
Scan type : Progressive
Bits/(Pixel*Frame) : 0.288
Stream size : 3.26 GiB (85%)
Title : 720p
Writing library : x264 core 56 svn-675
Encoding settings : cabac=1 / ref=5 / deblock=1:-1:0 / analyse=0x3:0x133 / me=umh / subme=7 / brdo=0 / mixed_ref=1 / me_range=16 / chroma_me=1 / trellis=1 / 8x8dct=1 / cqm=2 / deadzone=21,11 / chroma_qp_offset=0 / threads=3 / nr=0 / decimate=1 / mbaff=0 / bframes=3 / b_pyramid=1 / b_adapt=1 / b_bias=0 / direct=1 / wpredb=1 / bime=1 / keyint=240 / keyint_min=24 / scenecut=40(pre) / rc=2pass / bitrate=4858 / ratetol=1.0 / rceq='blurCplx^(1-qComp)' / qcomp=0.60 / qpmin=10 / qpmax=51 / qpstep=4 / cplxblur=20.0 / qblur=0.5 / ip_ratio=1.40 / pb_ratio=1.30 / zones=0,1,b=0.1
Language : English

Audio
ID : 2
Format : DTS
Format/Info : Digital Theater Systems
Muxing mode : Header stripping
Codec ID : A_DTS
Duration : 1h 34mn
Bit rate mode : Constant
Bit rate : 754 Kbps
Channel(s) : 6 channels
Channel positions : Front: L C R, Side: L R, LFE
Sampling rate : 48.0 KHz
Bit depth : 16 bits
Compression mode : Lossy
Delay relative to video : 25ms
Stream size : 509 MiB (13%)
Title : TrueFrench DTS 5.1
Language : French