Telecharger Le Bal des casse-pieds [BLURAY 720p] French

Qualité BLURAY 720p | FRENCH | son DTS

Le Bal des casse-pieds

Le Bal des casse-pieds

Origine du film : Français
Réalisateur : Yves Robert
Acteurs : Jean Rochefort, Miou-Miou, Jean Carmet
Genre : Comédie
Durée : 1h39min
Date de sortie : 12 février 1992
Année de production : 1991
Distribué par : Gaumont
Note spectateurs : Le Bal des casse-pieds

; »>2,9/5 (166)
Bande annonce :

3bba22bbc359d73fe33998a82eafd453

19462177″>Cliquez-ici pour voir la bande annonce 3bba22bbc359d73fe33998a82eafd453″> 19462177

3bba22bbc359d73fe33998a82eafd453

Le Bal des casse-pieds

Henri Sauveur, un vétérinaire âgé d’une cinquantaine d’années, est harcelé par ses parents, amis et relations de travail. Il part avec Louise en Normandie pour vivre le parfait amour. Mais là encore, les casse-pieds semblent l’attendre.
99110″ style= »display:inline; »>

Le Bal des casse-pieds

Format : MKV
Découpé avec : Winrar

Le Bal des casse-pieds

Le.bal.des.casse.pieds.1991.FRENCH.720p.BluRay.x264-PTN

(9235 Mo)

[Liens Interchangeables entre hébergeurs: 9x 1000 Mo + 1x 235 Mo]

Uptobox
Télécharger

Uplea
Télécharger

1fichier
Télécharger

Uploaded
Télécharger

Rapidgator
Télécharger

TurboBit
Télécharger

[ Liens Premium ]

Uptobox
Télécharger

Uplea
Télécharger

1fichier
Télécharger

Uploaded
Télécharger

TurboBit
Télécharger

NFO :

Afficher / Masquer le texte e40e9734f824faabada16a407d121acd » class= »text_spoiler » style= »display:none; »>Le.bal.des.casse.pieds.1991.FRENCH.720p.BluRay.x264-PTN.zone-telechargement.com.mkv
Format : Matroska
Format version : Version 4 / Version 2
File size : 9.02 GiB
Duration : 1h 40mn
Overall bit rate : 12.9 Mbps
Encoded date : UTC 2014-12-05 08:39:34
Writing application : mkvmerge v7.3.0 (‘Nouages’) 32bit built on Oct 22 2014 18:44:01
Writing library : libebml v1.3.0 + libmatroska v1.4.1
DURATION : 01:40:21.003000000
NUMBER_OF_FRAMES : 564469
NUMBER_OF_BYTES : 578016256
_STATISTICS_WRITING_APP : mkvmerge v7.3.0 (‘Nouages’) 32bit built on Oct 22 2014 18:44:01
_STATISTICS_WRITING_DATE_UT : 2014-12-05 08:39:34
_STATISTICS_TAGS : BPS DURATION NUMBER_OF_FRAMES NUMBER_OF_BYTES

Video
ID : 1
Format : AVC
Format/Info : Advanced Video Codec
Format profile : [email protected]
Format settings, CABAC : Yes
Format settings, ReFrames : 9 frames
Codec ID : V_MPEG4/ISO/AVC
Duration : 1h 40mn
Bit rate : 11.8 Mbps
Width : 1 280 pixels
Height : 690 pixels
Display aspect ratio : 1.85:1
Frame rate mode : Constant
Frame rate : 24.000 fps
Color space : YUV
Chroma subsampling : 4:2:0
Bit depth : 8 bits
Scan type : Progressive
Bits/(Pixel*Frame) : 0.559
Stream size : 8.30 GiB (92%)
Writing library : x264 core 142 r2431+42 c69a006 tMod [[email protected]:2:0 X86_64]
Encoding settings : cabac=1 / ref=9 / deblock=1:-3:-3 / analyse=0x3:0x133 / me=umh / subme=10 / psy=1 / fade_compensate=0.00 / psy_rd=1.20:0.00 / mixed_ref=1 / me_range=24 / chroma_me=1 / trellis=2 / 8x8dct=1 / cqm=0 / deadzone=21,11 / fast_pskip=1 / chroma_qp_offset=-2 / threads=12 / lookahead_threads=2 / sliced_threads=0 / nr=0 / decimate=1 / interlaced=0 / bluray_compat=0 / constrained_intra=0 / fgo=0 / bframes=8 / b_pyramid=2 / b_adapt=2 / b_bias=0 / direct=3 / weightb=1 / open_gop=0 / weightp=2 / keyint=250 / keyint_min=24 / scenecut=40 / intra_refresh=0 / rc_lookahead=60 / rc=crf / mbtree=0 / crf=16.3000 / qcomp=0.65 / qpmin=0:0:0 / qpmax=69:69:69 / qpstep=4 / vbv_maxrate=62500 / vbv_bufsize=78125 / crf_max=0.0 / nal_hrd=none / filler=0 / ip_ratio=1.30 / pb_ratio=1.20 / aq=4:0.85 / aq-sensitivity=10.00 / aq-factor=1.00:1.00:1.00 / aq2=0 / aq3=0
Language : French
Default : Yes
Forced : No
Color range : Limited
Matrix coefficients : BT.709
DURATION : 01:40:21.000000000
NUMBER_OF_FRAMES : 144504
NUMBER_OF_BYTES : 9104340148
_STATISTICS_WRITING_APP : mkvmerge v7.3.0 (‘Nouages’) 32bit built on Oct 22 2014 18:44:01
_STATISTICS_WRITING_DATE_UT : 2014-12-05 08:39:34
_STATISTICS_TAGS : BPS DURATION NUMBER_OF_FRAMES NUMBER_OF_BYTES

Audio
ID : 2
Format : DTS
Format/Info : Digital Theater Systems
Mode : 16
Format settings, Endianness : Big
Codec ID : A_DTS
Duration : 1h 40mn
Bit rate mode : Constant
Bit rate : 768 Kbps
Channel(s) : 2 channels
Channel positions : Front: L R
Sampling rate : 48.0 KHz
Bit depth : 16 bits
Compression mode : Lossy
Stream size : 551 MiB (6%)
Language : French
Default : No
Forced : No

Jeux Gratuit
15354131_1854970838071206_1069261547_o.png