Télécharger Le bal des pompiers (TV) French

Qualité DVDRiP | FRENCH

Le bal des pompiers (TV)

Le bal des pompiers (TV)

Le bal des pompiers (TV)

Origine du film : Canadien
Réalisateur : Graeme Campbell
Acteurs : William Baldwin, Natalie Brown, Lisa Berry
Genre : Romance
Durée : 1h 45min
Année de production : 2013
Titre Original : Be My Valentine (TV)
Note spectateurs : Le bal des pompiers (TV) 3/5 (1)

Le bal des pompiers (TV)

Célibataire depuis le décès tragique de sa femme, Dan le chef des pompier n’a jamais refait sa vie. Une intervention de routine pourrait cependant bien faire évoluer la situation.

Nom de la release : Be My Valentine 2013 FRENCH DVDRiP XViD-STVFRV 33880″ style= »display:inline; »>

Qualité : DVDRiP
Format : XviD
Langue : Français
Taille totale : 700 Mo

1fichier
Télécharger

Uptobox
Télécharger

Free
Télécharger

Uploaded
Télécharger

Rapidgator
Télécharger

TurboBit
Télécharger

NFO

Afficher / Masquer le texte 200b027ce28aabfc5b5dff44cf6f70ac » class= »text_spoiler » style= »display:none; »>General
Complete name : Be.My.Valentine.2013.FRENCH.DVDRiP.XViD-STVFRV.avi
Format : AVI
Format/Info : Audio Video Interleave
File size : 747 MiB
Duration : 1h 21mn
Overall bit rate : 1 273 Kbps
Writing application : VirtualDubMod 1.5.1.1a (build 1155/release)
Writing library : VirtualDubMod build 1155/release

Video
ID : 0
Format : MPEG-4 Visual
Format profile : Advanced [email protected]
Format settings, BVOP : 2
Format settings, QPel : No
Format settings, GMC : No warppoints
Format settings, Matrix : Default (H.263)
Muxing mode : Packed bitstream
Codec ID : XVID
Codec ID/Hint : XviD
Duration : 1h 21mn
Bit rate : 1 072 Kbps
Width : 640 pixels
Height : 272 pixels
Display aspect ratio : 2.35:1
Frame rate : 25.000 fps
Color space : YUV
Chroma subsampling : 4:2:0
Bit depth : 8 bits
Scan type : Progressive
Compression mode : Lossy
Bits/(Pixel*Frame) : 0.246
Stream size : 628 MiB (84%)
Writing library : XviD 1.1.2 (UTC 2006-11-01)

Audio
ID : 1
Format : MPEG Audio
Format version : Version 1
Format profile : Layer 3
Codec ID : 55
Codec ID/Hint : MP3
Duration : 1h 21mn
Bit rate mode : Constant
Bit rate : 192 Kbps
Channel(s) : 2 channels
Sampling rate : 44.1 KHz
Compression mode : Lossy
Delay relative to video : 16ms
Stream size : 113 MiB (15%)
Alignment : Split accross interleaves
Interleave, duration : 40 ms (1.00 video frame)
Interleave, preload duration : 500 ms