Telecharger Le Bateau [DVDRiP] French

(TRUEFRENCH = Vraie voix française)

BLURAY 1080p (Director's Cut) | MULTiLANGUES (Avec TRUEFRENCH) | DTS

Le Bateau

Le Bateau

Le Bateau

Origine du film : Ouest-Allemand
Réalisateur : Wolfgang Petersen
Acteurs : Jürgen Prochnow, Erwin Leder, Herbert Grönemeyer
Genre : Drame, Guerre
Durée : 3h 28mn
Date de sortie : 17 février 1982
Année de production : 1981
Titre Original : Das Boot
Note presse : Le Bateau 2,8/5
Note spectateurs : Le Bateau

; »>4/5 (927)
Bande annonce :

9ef2f788fb72df99f2a273c1d596c9eb

19423626″>Cliquez-ici pour voir la bande annonce 9ef2f788fb72df99f2a273c1d596c9eb »> 19423626

9ef2f788fb72df99f2a273c1d596c9eb

Le Bateau

Pendant la deuxième Guerre Mondiale, 40 000 sous-mariniers allemands envoyés par Hitler embarquent pour une mission de routine dans l'Atlantique Nord. L'insouciance règne à bord. Ce qu'ils ne savent pas, c'est que seuls 10 000 hommes retourneront chez eux vivants.
69639″ style= »display:inline; »>

Le Bateau

Qualité : BLURAY 1080p
Format : MKV
Nombre de fichiers : 28 Fichiers
Taille des fichiers : 1000 Mo + 500 Mo

Le Bateau

[Liens Interchangeables]

Das.Boot.DIRECTORS.CUT.1981.MULTi.1080p.BluRay.x264-STEAL ( 27500 Mo)

Uptobox
Télécharger

Uploaded
Télécharger

TurboBit
Télécharger

Rapidgator
Télécharger

Uplea
Télécharger

1fichier
Télécharger

[Liens Premium ]

Uptobox
Télécharger

Uploaded
Télécharger

TurboBit
Télécharger

Uplea
Télécharger

1fichier
Télécharger

NFO :

Afficher / Masquer le texte 769609019eab11685074511a307a7e0a » class= »text_spoiler » style= »display:none; »>Das Boot Director’s Cut MULTI DTS-HD MA VO AC3 VFF 1080p x264-STEAL.mkv

Format : Matroska
File size : 26.8 GiB
Duration : 3h 28mn
Overall bit rate : 18.5 Mbps
Encoded date : UTC 2012-10-30 20:35:03
Writing application : mkvmerge v5.0.1 (‘Es ist Sommer’) built on Oct 13 2011 12:47:36
Writing library : libebml v1.2.2 + libmatroska v1.3.0

Video
ID : 1
Format : AVC
Format/Info : Advanced Video Codec
Format profile : [email protected]
Format settings, CABAC : Yes
Format settings, ReFrames : 4 frames
Codec ID : V_MPEG4/ISO/AVC
Duration : 3h 28mn
Bit rate mode : Variable
Bit rate : 12.7 Mbps
Maximum bit rate : 40.0 Mbps
Width : 1 920 pixels
Height : 1 080 pixels
Display aspect ratio : 16:9
Frame rate : 23.976 fps
Color space : YUV
Chroma subsampling : 4:2:0
Bit depth : 8 bits
Scan type : Progressive
Bits/(Pixel*Frame) : 0.256
Stream size : 18.5 GiB (69%)
Title : Das Boot Director’s Cut
Writing library : x264 core 128 r2M 198a7ea
Encoding settings : cabac=1 / ref=4 / deblock=1:-3:-3 / analyse=0x3:0x113 / me=umh / subme=11 / psy=1 / psy_rd=0.95:0.40 / mixed_ref=1 / me_range=128 / chroma_me=1 / trellis=2 / 8x8dct=1 / cqm=0 / deadzone=6,6 / fast_pskip=0 / chroma_qp_offset=-4 / threads=6 / lookahead_threads=1 / sliced_threads=0 / nr=0 / decimate=0 / interlaced=0 / bluray_compat=0 / constrained_intra=0 / bframes=8 / b_pyramid=2 / b_adapt=2 / b_bias=0 / direct=3 / weightb=1 / open_gop=1 / weightp=2 / keyint=250 / keyint_min=23 / scenecut=40 / intra_refresh=0 / rc_lookahead=250 / rc=crf / mbtree=1 / crf=19.5 / qcomp=0.70 / qpmin=0 / qpmax=69 / qpstep=4 / vbv_maxrate=50000 / vbv_bufsize=50000 / crf_max=0.0 / nal_hrd=none / ip_ratio=1.40 / aq=3:0.7
Color primaries : BT.709-5, BT.1361, IEC 61966-2-4, SMPTE RP177
Transfer characteristics : BT.709-5, BT.1361
Matrix coefficients : BT.709-5, BT.1361, IEC 61966-2-4 709, SMPTE RP177

Audio #1
ID : 2
Format : DTS
Format/Info : Digital Theater Systems
Format profile : MA / Core
Codec ID : A_DTS
Duration : 3h 28mn
Bit rate mode : Variable
Bit rate : 3 415 Kbps / 1 510 Kbps
Channel(s) : 6 channels
Channel positions : Front: L C R, Side: L R, LFE
Sampling rate : 48.0 KHz
Bit depth : 24 bits
Compression mode : Lossless / Lossy
Title : VO DTS-HD MA Audio German 5.1 / 2553 kbps / 48 KHz / 24-Bit / 5.1
Language : German

Audio #2
ID : 3
Format : DTS
Format/Info : Digital Theater Systems
Codec ID : A_DTS
Duration : 3h 28mn
Bit rate mode : Constant
Bit rate : 1 510 Kbps
Channel(s) : 6 channels
Channel positions : Front: L C R, Side: L R, LFE
Sampling rate : 48.0 KHz
Bit depth : 24 bits
Compression mode : Lossy
Stream size : 2.19 GiB (8%)
Title : VO DTS Audio English 1509 kbps 5.1 / 48 kHz / 1509 kbps / 24-bit
Language : English

Audio #3
ID : 4
Format : AC-3
Format/Info : Audio Coding 3
Mode extension : CM (complete main)
Codec ID : A_AC3
Duration : 3h 28mn
Bit rate mode : Constant
Bit rate : 448 Kbps
Channel(s) : 6 channels
Channel positions : Front: L C R, Side: L R, LFE
Sampling rate : 48.0 KHz
Bit depth : 16 bits
Compression mode : Lossy
Stream size : 667 MiB (2%)
Title : VFF Dolby Digital Audio French 448 kbps 5.1 / 48 kHz / 448 kbps
Language : French

Jeux Gratuit
15354131_1854970838071206_1069261547_o.png