Telecharger Le Blob [DVDRiP] French

(TRUEFRENCH = Vraie voix française)

Qualité BLURAY 720p | TRUEFRENCH

Le Blob

Le Blob

Le Blob

Origine du film : Américain
Réalisateur : Chuck Russell
Acteurs : Kevin Dillon, Shawnee Smith, Donovan Leitch Jr.
Genre : Epouvante-horreur, Science fiction
Durée : 1h25min
Année de production : 1988
Titre Original : The Blob
Note spectateurs : Le Blob

; »>3/5 (421)
Bande annonce :

4b8b064dfcc1b6c3c4af9527e963427d

19415347″>Cliquez-ici pour voir la bande annonce 4b8b064dfcc1b6c3c4af9527e963427d »> 19415347

4b8b064dfcc1b6c3c4af9527e963427d

Le Blob

Un monstre étrange venu d’ailleurs, informe et gelatineux, dévore tout ce qui vit, en particulier les êtres humains, dont il se régale. Mais avant qu’il n’ait complétement digéré une ville dont il s’est régalé, Meg Penny et Brian Flagg, découvrent que le Blob fuit la neige carbonique, tels les vampires les crucifix…
99834″ style= »display:inline; »>

Le Blob

Format : MKV
Découpé avec : Winrar

Le Blob

The.Blob.1988.TRUEFRENCH.720p.BluRay.x264-St4f

(3579 Mo)

[Liens Interchangeables entre hébergeurs: 3x 1000 Mo + 1x 579 Mo]

Uptobox
Télécharger

Uplea
Télécharger

1fichier
Télécharger

Uploaded
Télécharger

Rapidgator
Télécharger

TurboBit
Télécharger

[ Liens Premium ]

Uptobox
Télécharger

Uplea
Télécharger

1fichier
Télécharger

Uploaded
Télécharger

TurboBit
Télécharger

NFO :

Afficher / Masquer le texte bcb7b13453f9f2efc88659183fbc825c » class= »text_spoiler » style= »display:none; »>The.Blob.1988.TRUEFRENCH.720p.BluRay.x264-St4f.zone-telechargement.com.mkv
Format : Matroska
Format version : Version 4 / Version 2
File size : 3.50 GiB
Duration : 1h 35mn
Overall bit rate : 5 268 Kbps
Encoded date : UTC 2014-11-08 15:57:34
Writing application : mkvmerge v7.2.0 (‘On Every Street’) 64bit built on Sep 13 2014 15:52:10
Writing library : libebml v1.3.0 + libmatroska v1.4.1
DURATION : 01:34:59.200000000
NUMBER_OF_FRAMES : 178100
NUMBER_OF_BYTES : 136780800
_STATISTICS_WRITING_APP : mkvmerge v7.2.0 (‘On Every Street’) 64bit built on Sep 13 2014 15:52:10
_STATISTICS_WRITING_DATE_UT : 2014-11-08 15:57:34
_STATISTICS_TAGS : BPS DURATION NUMBER_OF_FRAMES NUMBER_OF_BYTES

Video
ID : 1
Format : AVC
Format/Info : Advanced Video Codec
Format profile : [email protected]
Format settings, CABAC : Yes
Format settings, ReFrames : 5 frames
Codec ID : V_MPEG4/ISO/AVC
Duration : 1h 35mn
Bit rate : 5 076 Kbps
Width : 1 280 pixels
Height : 688 pixels
Display aspect ratio : 1.85:1
Frame rate mode : Constant
Frame rate : 23.976 fps
Color space : YUV
Chroma subsampling : 4:2:0
Bit depth : 8 bits
Scan type : Progressive
Bits/(Pixel*Frame) : 0.240
Stream size : 3.30 GiB (94%)
Writing library : x264 core 142 r2479 dd79a61
Encoding settings : cabac=1 / ref=5 / deblock=1:-3:-3 / analyse=0x3:0x113 / me=umh / subme=8 / psy=1 / psy_rd=1.00:0.00 / mixed_ref=1 / me_range=16 / chroma_me=1 / trellis=1 / 8x8dct=1 / cqm=0 / deadzone=21,11 / fast_pskip=1 / chroma_qp_offset=-2 / threads=18 / lookahead_threads=3 / sliced_threads=0 / nr=0 / decimate=1 / interlaced=0 / bluray_compat=0 / constrained_intra=0 / bframes=3 / b_pyramid=2 / b_adapt=2 / b_bias=0 / direct=3 / weightb=1 / open_gop=0 / weightp=2 / keyint=240 / keyint_min=24 / scenecut=40 / intra_refresh=0 / rc_lookahead=50 / rc=2pass / mbtree=1 / bitrate=5076 / ratetol=1.0 / qcomp=0.60 / qpmin=0 / qpmax=69 / qpstep=4 / cplxblur=20.0 / qblur=0.5 / ip_ratio=1.40 / aq=1:1.00
Language : English
Default : Yes
Forced : No
DURATION : 01:35:00.153000000
NUMBER_OF_FRAMES : 136667
NUMBER_OF_BYTES : 3615249470
_STATISTICS_WRITING_APP : mkvmerge v7.2.0 (‘On Every Street’) 64bit built on Sep 13 2014 15:52:10
_STATISTICS_WRITING_DATE_UT : 2014-11-08 15:57:34
_STATISTICS_TAGS : BPS DURATION NUMBER_OF_FRAMES NUMBER_OF_BYTES

Audio
ID : 2
Format : AC-3
Format/Info : Audio Coding 3
Mode extension : CM (complete main)
Format settings, Endianness : Big
Codec ID : A_AC3
Duration : 1h 35mn
Bit rate mode : Constant
Bit rate : 192 Kbps
Channel(s) : 2 channels
Channel positions : Front: L R
Sampling rate : 48.0 KHz
Compression mode : Lossy
Delay relative to video : 1s 0ms
Stream size : 130 MiB (4%)
Default : Yes
Forced : No