Telecharger Le Cavalier de l'aube [BLURAY 720p] French

(TRUEFRENCH = Vraie voix française)

BLURAY 720p | MULTiLANGUES (Avec TRUEFRENCH) | DTS

Le Cavalier de l'aube

Le Cavalier de l'aube

Le Cavalier de l'aube

Origine du film : Canadien
Réalisateur : Terry Miles
Acteurs : Christian Slater, Donald Sutherland, Jill Hennessy
Genre : Western
Durée : 1h 34min
Année de production : 2012
Titre Original : Dawn Rider
Note spectateurs : Le Cavalier de l'aube

; »>2,2/5 (25)
Bande annonce :

de7e10b4ea27801b97cef59da5f0da27

19441376″>Cliquez-ici pour voir la bande annonce de7e10b4ea27801b97cef59da5f0da27″> 19441376

de7e10b4ea27801b97cef59da5f0da27

Le Cavalier de l'aube

John Mason assiste impuissant au meurtre de son père et se lance sur les traces du meurtrier. En chemin, il tombe sous le charme d'Alice, qui le détourne de son objectif. Jusqu'au jour où la jeune femme lui présente son frère, Rudd, qu'il soupçonne être l'assassin de son père…

Nom de la release : Le.Cavalier.de.l'aube.2012.MULTi.TRUEFRENCH.DTS.720p.BluRay.x264-STEAL 26552″ style= »display:inline; »>

Qualité : BLURAY 720p
Format : MKV
Sous-titre : Multi
Nombre de fichiers : 6 Fichiers
Taille des fichiers : 1000 Mo 641 Mo
Taille totale : 5641 Mo

Ps: Les liens sont interchangeables, prenez une partie de chaque hébergeur pour télécharger plusieurs fichiers en même temps. smile

1fichier
Télécharger

Uptobox
Télécharger

Free
Télécharger

Uploaded
Télécharger

Rapidgator
Télécharger

TurboBit
Télécharger

[Un Lien Premium]

1fichier
Télécharger

Uptobox
Télécharger

TurboBit
Télécharger

NFO :

Afficher / Masquer le texte 0c8b6f448a1c2e91ab311e9af65882d4″ class= »text_spoiler » style= »display:none; »>General
Unique ID : 220063909944566679775184415197167477119 (0xA58EC4734918FC14B599064AFE75E17F)
Complete name : E:TelechargementsTerminesLe Cavalier de l'aube 2012 720p DTS Bluray x264-STEAL.mkv
Format : Matroska
File size : 5.51 GiB
Duration : 1h 40mn
Overall bit rate : 7 886 Kbps
Movie name : Le Cavalier de l'aube 2012 High [email protected] Resolution 1280p/ 720p Frame rate 25 fps Release Blondin000
Encoded date : UTC 2013-05-21 14:13:55
Writing application : mkvmerge v6.0.0 ('Coming Up For Air') built on Jan 20 2013 09:52:00
Writing library : libebml v1.3.0 libmatroska v1.4.0

Video
ID : 1
Format : AVC
Format/Info : Advanced Video Codec
Format profile : [email protected]
Format settings, CABAC : Yes
Format settings, ReFrames : 9 frames
Codec ID : V_MPEG4/ISO/AVC
Duration : 1h 40mn
Bit rate : 4 709 Kbps
Nominal bit rate : 5 600 Kbps
Width : 1 280 pixels
Height : 720 pixels
Display aspect ratio : 16:9
Frame rate : 25.000 fps
Color space : YUV
Chroma subsampling : 4:2:0
Bit depth : 8 bits
Scan type : Progressive
Bits/(Pixel*Frame) : 0.204
Stream size : 3.29 GiB (60%)
Title : Le Cavalier de l'aube 2012 High [email protected] Resolution 1280p/ 720p Frame rate 25 fps Release Blondin000
Writing library : x264 core 130 r2273 b3065e6
Encoding settings : cabac=1 / ref=9 / deblock=1:-3:-3 / analyse=0x3:0x113 / me=umh / subme=11 / psy=1 / psy_rd=0.92:0.22 / mixed_ref=1 / me_range=128 / chroma_me=1 / trellis=2 / 8x8dct=1 / cqm=0 / deadzone=21,11 / fast_pskip=0 / chroma_qp_offset=-2 / threads=24 / lookahead_threads=2 / sliced_threads=0 / nr=0 / decimate=1 / interlaced=0 / bluray_compat=0 / constrained_intra=0 / bframes=5 / b_pyramid=2 / b_adapt=2 / b_bias=0 / direct=1 / weightb=1 / open_gop=1 / weightp=2 / keyint=250 / keyint_min=25 / scenecut=40 / intra_refresh=0 / rc_lookahead=250 / rc=2pass / mbtree=1 / bitrate=5600 / ratetol=1.0 / qcomp=0.60 / qpmin=0 / qpmax=69 / qpstep=4 / cplxblur=20.0 / qblur=0.5 / vbv_maxrate=50000 / vbv_bufsize=50000 / nal_hrd=none / ip_ratio=1.40 / aq=2:1.00
Language : English
Color primaries : BT.709-5, BT.1361, IEC 61966-2-4, SMPTE RP177
Transfer characteristics : BT.709-5, BT.1361
Matrix coefficients : BT.709-5, BT.1361, IEC 61966-2-4 709, SMPTE RP177

Audio #1
ID : 2
Format : DTS
Format/Info : Digital Theater Systems
Codec ID : A_DTS
Duration : 1h 40mn
Bit rate mode : Constant
Bit rate : 1 510 Kbps
Channel(s) : 6 channels
Channel positions : Front: L C R, Side: L R, LFE
Sampling rate : 48.0 KHz
Bit depth : 24 bits
Compression mode : Lossy
Stream size : 1.05 GiB (19%)
Title : VFF DTS 5.1_1510 kbps/ 24-bit 48khz
Language : French

Audio #2
ID : 3
Format : DTS
Format/Info : Digital Theater Systems
Codec ID : A_DTS
Duration : 1h 40mn
Bit rate mode : Constant
Bit rate : 1 510 Kbps
Channel(s) : 6 channels
Channel positions : Front: L C R, Side: L R, LFE
Sampling rate : 48.0 KHz
Bit depth : 16 bits
Compression mode : Lossy
Stream size : 1.05 GiB (19%)
Title : VO DTS 5.1_1510 kbps/ 16-bit 48khz
Language : English

Text #1
ID : 4
Format : PGS
Muxing mode : zlib
Codec ID : S_HDMV/PGS
Codec ID/Info : The same subtitle format used on BDs/HD-DVDs
Title : FR Complets Original Bluray
Language : French

Text #2
ID : 5
Format : PGS
Muxing mode : zlib
Codec ID : S_HDMV/PGS
Codec ID/Info : The same subtitle format used on BDs/HD-DVDs
Title : FR ForcΘs Original bluray
Language : French

Text #3
ID : 6
Format : UTF-8
Codec ID : S_TEXT/UTF8
Codec ID/Info : UTF-8 Plain Text
Title : FR Complets srt
Language : French

Text #4
ID : 7
Format : UTF-8
Codec ID : S_TEXT/UTF8
Codec ID/Info : UTF-8 Plain Text
Title : FR ForcΘs srt
Language : French