Telecharger Le Choc des titans [DVDRiP] French

BLURAY 720p | MULTiLANGUES

Le Choc des titans

Le Choc des titans

Le Choc des titans

Origine du film : Américain, britannique
Réalisateur : Desmond Davis
Acteurs : Harry Hamlin, Judi Bowker, Laurence Olivier
Genre : Fantastique
Durée : 1h58min
Date de sortie : 8 juillet 1981
Année de production : 1981
Titre Original : Clash of the Titans
Note spectateurs : Le Choc des titans

; »>3,5/5 (855)
Bande annonce :

36b7d5b7ed252ab6777cc564cd7d204e

19502418″>Cliquez-ici pour voir la bande annonce 36b7d5b7ed252ab6777cc564cd7d204e »> 19502418

36b7d5b7ed252ab6777cc564cd7d204e

Le Choc des titans

Vingt ans après que le roi d'Argos l'ait condamné à l'exil, Persée, le fils de Zeus et d'une mortelle Danaé, doit reconquérir le royaume qui lui appartient. Soutenu par son père, il commence par libérer la princesse Andromaque, et en tombe éperdument amoureux. Mais la déesse Thétis et son fils, Calibos font peser sur la belle une terrible malédiction : tous ceux voulant l'épouser devront, sous peine de mort, répondre à une énigme. Jusqu'ici, aucun n'a su trouver la bonne réponse…Qu'à cela ne tienne, Persée a bien l'intention de défier la puissance des dieux et de braver mille dangers pour réaliser l'impossible : affronter des sorcières démoniaques et cannibales, combattre le cerbère, trancher la tête de Méduse, une créature capable de changer ses victimes en statues de pierres… 43359″ style= »display:inline; »>

Qualité : BLURAY 720p
Format : MKV
Langue : Multilangage
Sous-titre : Multi
Découpé avec : Winrar
Nombre de fichiers : 7 Fichiers
Taille des fichiers : 1000 Mo 698 Mo

[Liens Interchangeables]

Clash.Of.The.Titans.1981.MULTI.720p.BluRay.x264-Cris01 ( 6698 Mo)

1fichier
Télécharger

Uptobox
Télécharger

Rapidgator
Upload en cours…

TurboBit
Télécharger

[1 Lien Premium]

[1 Lien Premium]

1fichier
Télécharger

Uptobox
Télécharger

TurboBit
Télécharger

NFO :

Afficher / Masquer le texte 397157e2bfaf2952083ba18a710f5d5f » class= »text_spoiler » style= »display:none; »>Video
ID : 1
Format : AVC
Format/Info : Advanced Video Codec
Format profile : [email protected]
Format settings, CABAC : Yes
Format settings, ReFrames : 9 frames
Muxing mode : Container profile=[email protected]
Codec ID : V_MPEG4/ISO/AVC
Duration : 1h 57mn
Bit rate : 6 081 Kbps
Nominal bit rate : 6 237 Kbps
Width : 1 280 pixels
Height : 720 pixels
Display aspect ratio : 16:9
Frame rate : 23.976 fps
Resolution : 8 bits
Colorimetry : 4:2:0
Scan type : Progressive
Bits/(Pixel*Frame) : 0.275
Stream size : 5.00 GiB (77%)
Writing library : x264 core 80 r1376M 3feaec2

Language : English

Audio #1
ID : 2
Format : AC-3
Format/Info : Audio Coding 3
Codec ID : A_AC3
Duration : 1h 57mn
Bit rate mode : Constant
Bit rate : 192 Kbps
Channel(s) : 1 channel
Channel positions : C
Sampling rate : 48.0 KHz
Stream size : 162 MiB (2%)
Language : French

Audio #2
ID : 3
Format : DTS
Format/Info : Digital Theater Systems
Codec ID : A_DTS
Duration : 1h 57mn
Bit rate mode : Constant
Bit rate : 1 510 Kbps
Channel(s) : 2 channels
Channel positions : L R
Sampling rate : 48.0 KHz
Resolution : 24 bits
Stream size : 1.24 GiB (19%)
Language : English

Text
ID : 4
Format : UTF-8
Codec ID : S_TEXT/UTF8
Codec ID/Info : UTF-8 Plain Text
Language : French

1474
-
Votes : 0
Jeux Gratuit
15354131_1854970838071206_1069261547_o.png