Telecharger Le Club des monstres [DVDRiP] French

(TRUEFRENCH = Vraie voix française)

Qualité DVDRiP | TRUEFRENCH

Le Club des monstres

Le Club des monstres

Origine du film : Britannique
Réalisateur : Roy Ward Baker
Acteurs : Vincent Price, John Carradine, Roger Sloman
Genre : Comédie, Epouvante-horreur
Durée : 1h44min
Année de production : 1980
Titre Original : The Monster Club
Note spectateurs : Le Club des monstres

; »>2,9/5 (32)
Bande annonce :

d8b0a26bd1d9bad0123c40512c39b12a

19545594″>Cliquez-ici pour voir la bande annonce d8b0a26bd1d9bad0123c40512c39b12a »> 19545594

d8b0a26bd1d9bad0123c40512c39b12a

Le Club des monstres

Un romancier spécialisé dans le mystère et l’horreur, est invité au Club des Monstres, lieu de rendez-vous de vampires, loups-garous, et autres créatures fantastiques. Son hôte, le vampire Erasmus, lui raconte trois histoires terrifiantes. Une expérience dont notre romancier ne sortira pas indemne !
105355″ style= »display:inline; »>

Le Club des monstres

Format : XviD

Le Club des monstres

Le Club des Monstres 1981 TRUEFRENCH.DVDRiP.XViD.AC3-KeN

(1360 Mo)

Uptobox
Télécharger

Uploaded
Télécharger

TurboBit
Télécharger

Rapidgator
Télécharger

Uplea
Télécharger

1fichier
Télécharger

NFO :

Afficher / Masquer le texte 718e30e9066f3e0dfcdd35523ba5d9b3″ class= »text_spoiler » style= »display:none; »>■General

Complete name : H:Le.Club.Des.Monstres.1981.TRUEFRENCH.DVDRiP.XViD.AC3-KeNLe.Club.Des.Monstres.1981.TRUEFRENCH.DVDRiP.XViD.AC3-KeN.avi

Format : AVI

Format/Info : Audio Video Interleave

File size : 1.36 GiB

Duration : 1h 33mn

Overall bit rate : 2 080 Kbps

Writing application : VirtualDubMod 1.5.10.2 (build 2542/release)

Writing library : VirtualDubMod build 2542/release

Video

ID : 0

Format : MPEG-4 Visual

Format profile : Advanced [email protected]

Format settings, BVOP : 1

Format settings, QPel : No

Format settings, GMC : No warppoints

Format settings, Matrix : Default (H.263)

Muxing mode : Packed bitstream

Codec ID : XVID

Codec ID/Hint : XviD

Duration : 1h 33mn

Bit rate : 1 849 Kbps

Width : 640 pixels

Height : 352 pixels

Display aspect ratio : 16:9

Frame rate : 25.000 fps

Color space : YUV

Chroma subsampling : 4:2:0

Bit depth : 8 bits

Scan type : Progressive

Compression mode : Lossy

Bits/(Pixel*Frame) : 0.328

Stream size : 1.21 GiB (89%)

Writing library : XviD 64

Audio

ID : 1

Format : AC-3

Format/Info : Audio Coding 3

Mode extension : CM (complete main)

Format settings, Endianness : Big

Codec ID : 2000

Duration : 1h 33mn

Bit rate mode : Constant

Bit rate : 224 Kbps

Channel(s) : 2 channels

Channel positions : Front: L R

Sampling rate : 48.0 KHz

Compression mode : Lossy

Stream size : 150 MiB (11%)

Alignment : Split accross interleaves

Interleave, duration : 64 ms (1.60 video frames)

Interleave, preload duratio : 500 ms

Jeux Gratuit
15354131_1854970838071206_1069261547_o.png