Telecharger Le Continent oublié [DVDRiP] French

(TRUEFRENCH = Vraie voix française)

Qualité DVDRiP mkv | MULTiLANGUES (Avec TRUEFRENCH)

Le Continent oublié

Le Continent oublié

Origine du film : Britannique
Réalisateur : Kevin Connor
Acteurs : John Hallam, Patrick Wayne, Thorley Walters
Genre : Aventure, Science fiction, Fantastique
Durée : 1h30min
Année de production : 1977
Titre Original : The People That Time Forgot
Note spectateurs : Le Continent oublié

; »>2,7/5 (17)

Le Continent oublié

Le major Ben McBride organise une expédition sur les terres de l’Antarctique….
101626″ style= »display:inline; »>

Le Continent oublié

Format : MKV

Le Continent oublié

Le Continent oublié 1977 MULTI.DVDRIP.x264.AC3-HuSh

(1370 Mo)

Uptobox
Télécharger

Uploaded
Télécharger

TurboBit
Télécharger

Rapidgator
Télécharger

Uplea
Télécharger

1fichier
Télécharger

NFO :

Afficher / Masquer le texte ce78b7c44c2959b55fce2848a74eb418″ class= »text_spoiler » style= »display:none; »>■General

Unique ID : 177845550552719489229679195749642063689 (0x85CBCE9FFA0CF4E891CD0CAD7972CF49)

Complete name : F:TorrentLe.Continent.Oublie.1977.MULTI.DVDRIP.x264.AC3-HuShLe.Continent.Oublie.1977.MULTI.DVDRIP.x264.AC3-HuSh.mkv

Format : Matroska

Format version : Version 4 / Version 2

File size : 1.37 GiB

Duration : 1h 27mn

Overall bit rate : 2 252 Kbps

Movie name : Le.Continent.Oublie.1977.MULTI.DVDRIP.x264.AC3-HuSh

Encoded date : UTC 2014-02-27 09:12:40

Writing application : mkvmerge v6.0.0 (‘Coming Up For Air’) built on Jan 20 2013 09:52:00

Writing library : libebml v1.3.0 + libmatroska v1.4.0

Video

ID : 1

Format : AVC

Format/Info : Advanced Video Codec

Format profile : [email protected]

Format settings, CABAC : Yes

Format settings, ReFrames : 8 frames

Codec ID : V_MPEG4/ISO/AVC

Duration : 1h 27mn

Bit rate : 1 866 Kbps

Width : 704 pixels

Height : 384 pixels

Display aspect ratio : 1.85:1

Frame rate mode : Constant

Frame rate : 25.000 fps

Color space : YUV

Chroma subsampling : 4:2:0

Bit depth : 8 bits

Scan type : Progressive

Bits/(Pixel*Frame) : 0.276

Stream size : 1.11 GiB (81%)

Writing library : x264 core 130 r2273 b3065e6

Encoding settings : cabac=1 / ref=8 / deblock=1:0:0 / analyse=0x3:0x133 / me=umh / subme=9 / psy=1 / psy_rd=1.00:0.00 / mixed_ref=1 / me_range=16 / chroma_me=1 / trellis=2 / 8x8dct=1 / cqm=0 / deadzone=21,11 / fast_pskip=1 / chroma_qp_offset=-2 / threads=6 / lookahead_threads=1 / sliced_threads=0 / nr=0 / decimate=1 / interlaced=0 / bluray_compat=0 / constrained_intra=0 / bframes=3 / b_pyramid=2 / b_adapt=2 / b_bias=0 / direct=3 / weightb=1 / open_gop=0 / weightp=2 / keyint=250 / keyint_min=25 / scenecut=40 / intra_refresh=0 / rc_lookahead=60 / rc=2pass / mbtree=1 / bitrate=1866 / ratetol=1.0 / qcomp=0.60 / qpmin=0 / qpmax=69 / qpstep=4 / cplxblur=20.0 / qblur=0.5 / vbv_maxrate=17500 / vbv_bufsize=17500 / nal_hrd=none / ip_ratio=1.40 / aq=1:1.00

Language : English

Default : Yes

Forced : No

Color range : Limited

Color primaries : BT.601 PAL

Transfer characteristics : BT.709

Matrix coefficients : BT.601

Audio #1

ID : 2

Format : AC-3

Format/Info : Audio Coding 3

Mode extension : CM (complete main)

Format settings, Endianness : Big

Codec ID : A_AC3

Duration : 1h 27mn

Bit rate mode : Constant

Bit rate : 192 Kbps

Channel(s) : 2 channels

Channel positions : Front: L R

Sampling rate : 48.0 KHz

Compression mode : Lossy

Stream size : 119 MiB (9%)

Title : AC3 – 2 Canaux

Language : French

Default : Yes

Forced : No

Audio #2

ID : 3

Format : AC-3

Format/Info : Audio Coding 3

Mode extension : CM (complete main)

Format settings, Endianness : Big

Codec ID : A_AC3

Duration : 1h 27mn

Bit rate mode : Constant

Bit rate : 192 Kbps

Channel(s) : 2 channels

Channel positions : Front: L R

Sampling rate : 48.0 KHz

Compression mode : Lossy

Stream size : 119 MiB (9%)

Title : AC3 – 2 Canaux

Language : English

Default : No

Forced : No

Text #1

ID : 4

Format : UTF-8

Codec ID : S_TEXT/UTF8

Codec ID/Info : UTF-8 Plain Text

Title : Franτais

Language : French

Default : No

Forced : No

Text #2

ID : 5

Format : UTF-8

Codec ID : S_TEXT/UTF8

Codec ID/Info : UTF-8 Plain Text

Default : Yes

Forced : No

Jeux Gratuit
15354131_1854970838071206_1069261547_o.png