Telecharger Le Démantèlement [BLURAY 720p] French

BLURAY 720p | FRENCH | DTS

Le Démantèlement

Le Démantèlement

Le Démantèlement

Origine du film : Canadien
Réalisateur : Sébastien Pilote
Acteurs : Gabriel Arcand, Gilles Renaud, Lucie Laurier
Genre : Drame, Famille
Durée : 1h52min
Date de sortie : 4 décembre 2013
Année de production : 2013
Distribué par : Sophie Dulac Distribution
Note presse : Le Démantèlement 3,7/5
Note spectateurs : Le Démantèlement

; »>3,6/5 (77)
Bande annonce :

da79de3cb81382e725c73ac0b7f67935

19537784″>Cliquez-ici pour voir la bande annonce da79de3cb81382e725c73ac0b7f67935″> 19537784

da79de3cb81382e725c73ac0b7f67935

Le Démantèlement

Gaby est éleveur de moutons dans une ferme qu'il a héritée de son père. Il y vit seul depuis que ses filles sont parties s'installer à Montréal. Dans cette région reculée, la crise économique contraint de plus en plus les paysans à céder leurs propriétés. Gaby, lui, résiste. Sa ferme est sa seule raison de vivre. Jusqu'au jour où sa fille, acculée par des problèmes financiers, lui demande de l'aide. Gaby, chez qui le sentiment de paternité est particulièrement développé, va tout faire pour l’aider…
50664″ style= »display:inline; »>

Le Démantèlement

Qualité : BLURAY 720p
Format : MKV
Langue : Français
Sous-titre : Anglais
Nombre de fichiers : 5 Fichiers
Taille des fichiers : 1000 Mo + 471 Mo

Le Démantèlement

Ps: Les liens sont interchangeables, prenez une partie de chaque hébergeur pour télécharger plusieurs fichiers en même temps.

Le.Demantelement.2013.FRENCH.720p.BluRay.x264-RedBlade ( 4471 Mo)

1fichier
Télécharger

Uptobox
Télécharger

Free
Télécharger

Uploaded
Télécharger

Rapidgator
Télécharger

TurboBit
Télécharger

1 Lien Premium – 4.4 Go

1fichier Premium
Télécharger

Uptobox Premium
Télécharger

Uploaded Premium
Télécharger

TurboBit Premium
Télécharger

NFO :

Afficher / Masquer le texte 13334da1f4124141b115fc86a92fff37″ class= »text_spoiler » style= »display:none; »>General
Unique ID : 232142539080092160879910049182087083892 (0xAEA506D84DEDCC9D90B45E1ED2CB7774)
Complete name : The.Auction.2013.720p.BluRay.x264-RedBlade.mkv
Format : Matroska
Format version : Version 2
File size : 4.37 GiB
Duration : 1h 51mn
Overall bit rate : 5 601 Kbps
Encoded date : UTC 2014-04-16 00:13:14
Writing application : mkvmerge v6.5.0 (‘Isn’t she lovely’) built on Oct 20 2013 12:50:05
Writing library : libebml v1.3.0 + libmatroska v1.4.1

Video
ID : 1
Format : AVC
Format/Info : Advanced Video Codec
Format profile : [email protected]
Format settings, CABAC : Yes
Format settings, ReFrames : 5 frames
Codec ID : V_MPEG4/ISO/AVC
Duration : 1h 51mn
Bit rate : 4 091 Kbps
Width : 1 280 pixels
Height : 544 pixels
Display aspect ratio : 2.35:1
Frame rate mode : Constant
Frame rate : 23.976 fps
Color space : YUV
Chroma subsampling : 4:2:0
Bit depth : 8 bits
Scan type : Progressive
Bits/(Pixel*Frame) : 0.245
Stream size : 3.10 GiB (71%)
Writing library : x264 core 142 r2409 d6b4e63
Encoding settings : cabac=1 / ref=5 / deblock=1:0:0 / analyse=0x3:0x2 / me=umh / subme=7 / psy=1 / psy_rd=1.00:0.00 / mixed_ref=1 / me_range=16 / chroma_me=1 / trellis=1 / 8x8dct=1 / cqm=0 / deadzone=21,11 / fast_pskip=1 / chroma_qp_offset=-2 / threads=12 / lookahead_threads=2 / sliced_threads=0 / nr=0 / decimate=1 / interlaced=0 / bluray_compat=0 / constrained_intra=0 / bframes=3 / b_pyramid=2 / b_adapt=1 / b_bias=0 / direct=1 / weightb=0 / open_gop=0 / weightp=2 / keyint=240 / keyint_min=23 / scenecut=40 / intra_refresh=0 / rc=2pass / mbtree=0 / bitrate=4091 / ratetol=1.0 / qcomp=0.60 / qpmin=10 / qpmax=51 / qpstep=4 / cplxblur=20.0 / qblur=0.5 / ip_ratio=1.40 / pb_ratio=1.30 / aq=1:1.00
Language : English
Default : Yes
Forced : No

Audio
ID : 2
Format : DTS
Format/Info : Digital Theater Systems
Mode : 16
Format settings, Endianness : Big
Codec ID : A_DTS
Duration : 1h 51mn
Bit rate mode : Constant
Bit rate : 1 509 Kbps
Channel(s) : 6 channels
Channel positions : Front: L C R, Side: L R, LFE
Sampling rate : 48.0 KHz
Bit depth : 24 bits
Compression mode : Lossy
Stream size : 1.18 GiB (27%)
Title : French
Language : French
Default : Yes
Forced : No

Text
ID : 3
Format : UTF-8
Codec ID : S_TEXT/UTF8
Codec ID/Info : UTF-8 Plain Text
Language : English
Default : Yes
Forced : Yes