Telecharger Le Dernier rite [BLURAY 720p] French

(TRUEFRENCH = Vraie voix française)

BLURAY 720p | TRUEFRENCH

Le Dernier rite

Le Dernier rite

Le Dernier rite

Origine du film : Américain, canadien
Réalisateur : Peter Cornwell
Acteurs : Virginia Madsen, Kyle Gallner, Elias Koteas
Genre : Epouvante-horreur
Durée : 1h32min
Année de production : 2009
Titre Original : The Haunting in Connecticut
Distribué par : Metropolitan FilmExport
Note spectateurs : Le Dernier rite

; »>3,2/5 (291)
Bande annonce :

921ef5ffbbd5adcfcd590b1dce1d8268

19347562″>Cliquez-ici pour voir la bande annonce 921ef5ffbbd5adcfcd590b1dce1d8268″> 19347562

921ef5ffbbd5adcfcd590b1dce1d8268

Le Dernier rite

A la suite de leur déménagement dans le nord de l’Etat du Connecticut, les Campbell découvrent que leur maison est un ancien dépôt mortuaire. Jonas, le fils du propriétaire, entre en contact avec les forces maléfiques et vient libérer la famille de sa terreur… 40414″ style= »display:inline; »>

Qualité : BLURAY 720p
Format : MKV
Langue : Français
Découpé avec : Winrar
Nombre de fichiers : 5 Fichiers
Taille des fichiers : 1000 Mo 809 Mo

[5 Liens Interchangeables : 4 x 1000 Mo 1 x 809 Mo]

The.Haunting.In.Connecticut.2009.FRENCH.Bluray.720p.x264-Cris01 ( 4809 Mo)

1fichier
Télécharger

Uptobox
Télécharger

Free
Upload en panne

Uploaded
Télécharger

Rapidgator
Télécharger

TurboBit
Télécharger

[1 Lien PREMIUM : 1 x 4.70 GB]

1fichier
Télécharger

Uptobox
Télécharger

Uploaded
Télécharger

TurboBit
Télécharger

NFO :

Afficher / Masquer le texte fd64954f73ecd038dd961b22421f467b » class= »text_spoiler » style= »display:none; »>General
Complete name : The.Haunting.In.Connecticut.2009.FRENCH.Bluray.720p.x264-Cris01.mkv
Format : Matroska
Format version : Version 2
File size : 4.70 GiB
Duration : 1h 42mn
Overall bit rate : 6 538 Kbps
Encoded date : UTC 2013-04-24 11:45:54
Writing application : mkvmerge v4.9.1 ('Ich will') built on Jul 11 2011 23:53:15
Writing library : libebml v1.2.1 libmatroska v1.1.1

Video
ID : 1
Format : AVC
Format/Info : Advanced Video Codec
Format profile : [email protected]
Format settings, CABAC : Yes
Format settings, ReFrames : 9 frames
Muxing mode : Header stripping
Codec ID : V_MPEG4/ISO/AVC
Duration : 1h 42mn
Bit rate : 5 900 Kbps
Width : 1 280 pixels
Height : 544 pixels
Display aspect ratio : 2.35:1
Frame rate : 23.976 fps
Color space : YUV
Chroma subsampling : 4:2:0
Bit depth : 8 bits
Scan type : Progressive
Bits/(Pixel*Frame) : 0.353
Stream size : 4.14 GiB (88%)
Title : Encode par cris01
Writing library : x264 core 130 r2273 b3065e6
Encoding settings : cabac=1 / ref=9 / deblock=1:-3:-3 / analyse=0x3:0x113 / me=umh / subme=11 / psy=1 / psy_rd=0.90:0.02 / mixed_ref=1 / me_range=64 / chroma_me=1 / trellis=2 / 8x8dct=1 / cqm=0 / deadzone=21,11 / fast_pskip=0 / chroma_qp_offset=-3 / threads=6 / lookahead_threads=1 / sliced_threads=0 / nr=0 / decimate=1 / interlaced=0 / bluray_compat=0 / constrained_intra=0 / bframes=4 / b_pyramid=2 / b_adapt=2 / b_bias=0 / direct=1 / weightb=1 / open_gop=1 / weightp=2 / keyint=240 / keyint_min=23 / scenecut=40 / intra_refresh=0 / rc_lookahead=120 / rc=2pass / mbtree=1 / bitrate=5900 / ratetol=1.0 / qcomp=0.60 / qpmin=10 / qpmax=51 / qpstep=4 / cplxblur=20.0 / qblur=0.5 / vbv_maxrate=50000 / vbv_bufsize=50000 / nal_hrd=none / ip_ratio=1.40 / aq=1:1.00
Language : English

Audio
ID : 2
Format : AC-3
Format/Info : Audio Coding 3
Mode extension : CM (complete main)
Muxing mode : Header stripping
Codec ID : A_AC3
Duration : 1h 42mn
Bit rate mode : Constant
Bit rate : 640 Kbps
Channel(s) : 6 channels
Channel positions : Front: L C R, Side: L R, LFE
Sampling rate : 48.0 KHz
Bit depth : 16 bits
Compression mode : Lossy
Stream size : 471 MiB (10%)
Title : Francais AC3
Language : French

Menu
00:00:00.000 : :00:00:00.000
00:06:46.531 : :00:06:46.531
00:11:49.208 : :00:11:49.208
00:17:48.818 : :00:17:48.818
00:24:06.612 : :00:24:06.612
00:32:26.444 : :00:32:26.444
00:35:28.793 : :00:35:28.793
00:40:51.741 : :00:40:51.741
00:45:20.301 : :00:45:20.301
00:51:50.524 : :00:51:50.524
00:56:43.817 : :00:56:43.817
01:02:03.595 : :01:02:03.595
01:07:01.643 : :01:07:01.643
01:15:12.216 : :01:15:12.216
01:20:00.712 : :01:20:00.712
01:27:16.106 : :01:27:16.106

Jeux Gratuit
15354131_1854970838071206_1069261547_o.png