Telecharger Le Dîner de cons [BLURAY 720p] French

BLURAY 720p | TRUEFRENCH | DTS

Le Dîner de cons

Le Dîner de cons

Le Dîner de cons

Origine du film : Français
Réalisateur : Francis Veber
Acteurs : Thierry Lhermitte, Jacques Villeret, Francis Huster
Genre : Comédie
Durée : 1h20min
Date de sortie : 15 avril 1998
Année de production : 1998
Distribué par : Gaumont Buena Vista International (GBVI)
Note spectateurs : Le Dîner de cons

; »>4,2/5 (48 354)
Bande annonce :

4b2cb0ca4d266fd79acc47cbe6ef4150

18781052″>Cliquez-ici pour voir la bande annonce 4b2cb0ca4d266fd79acc47cbe6ef4150″> 18781052

4b2cb0ca4d266fd79acc47cbe6ef4150

Le Dîner de cons

Tous les mercredis, Pierre Brochant et ses amis organisent un dîner où chacun doit amener un con. Celui qui a trouvé le plus spectaculaire est declaré vainqueur. Ce soir, Brochant exulte, il est sur d'avoir trouvé la perle rare, un con de classe mondiale: Francois Pignon, comptable au ministère des Finances et passionné de modèles réduits en allumettes. Ce qu'il ignore c'est que Pignon est passe maître dans l'art de déclencher des catastrophes.
61460″ style= »display:inline; »>

Le Dîner de cons

Qualité : BLURAY 720p
Format : MKV
Langue : Français
Découpé avec : Winrar
Nombre de fichiers : 5 Fichiers
Taille des fichiers : 998 Mo + 498 Mo

Le Dîner de cons

[Liens Interchangeables 4 liens de 988 Mo et 1 lien de 496 Mo]

Le Diner De Cons 1998 FRENCH 720p BluRay x264-FHD ( 4490 Mo)

Uptobox
Télécharger

Uplea
Télécharger

1fichier
Télécharger

Free
Télécharger

Uploaded
Télécharger

Rapidgator
Télécharger

TurboBit
Télécharger

Mega
Télécharger

[ Télécharger le film en 1 lien Premium – 4,37 Go]

Uptobox.com Premium
Télécharger

Uplea Premium
Télécharger

1fichier.com
Télécharger

Mega
Télécharger

Uploaded.net Premium
Télécharger

Free
Télécharger

TurboBit.net Premium
Télécharger

Rapidgator.net Premium
Télécharger

NFO :

Afficher / Masquer le texte debdfd02e3cdc8648f917bbf8d8e2000″ class= »text_spoiler » style= »display:none; »>Format : Matroska
Format version : Version 1
File size : 4.37 GiB
Duration : 1h 19mn
Overall bit rate : 7 837 Kbps
Encoded date : UTC 2008-11-29 21:21:07
Writing application : mkvmerge v2.4.0 (‘Fumbling Towards Ecstasy’) built on Oct 11 2008 20:13:15
Writing library : libebml v0.7.7 + libmatroska v0.8.1

Video
ID : 1
Format : AVC
Format/Info : Advanced Video Codec
Format profile : [email protected]
Format settings, CABAC : Yes
Format settings, ReFrames : 5 frames
Codec ID : V_MPEG4/ISO/AVC
Duration : 1h 19mn
Bit rate : 6 324 Kbps
Width : 1 280 pixels
Height : 544 pixels
Display aspect ratio : 2.35:1
Frame rate mode : Constant
Frame rate : 24.000 fps
Color space : YUV
Chroma subsampling : 4:2:0
Bit depth : 8 bits
Scan type : Progressive
Bits/(Pixel*Frame) : 0.378
Stream size : 3.44 GiB (79%)
Title : Video
Writing library : x264 core 65 r1040M 1591275
Encoding settings : cabac=1 / ref=5 / deblock=1:0:0 / analyse=0x3:0x2 / me=hex / subme=7 / psy_rd=1.0:0.0 / mixed_ref=1 / me_range=16 / chroma_me=1 / trellis=1 / 8x8dct=1 / cqm=0 / deadzone=21,11 / chroma_qp_offset=-2 / threads=6 / nr=0 / decimate=1 / mbaff=0 / bframes=3 / b_pyramid=1 / b_adapt=1 / b_bias=0 / direct=1 / wpredb=1 / keyint=250 / keyint_min=25 / scenecut=40(pre) / rc=2pass / bitrate=6324 / ratetol=1.0 / qcomp=0.60 / qpmin=10 / qpmax=51 / qpstep=4 / cplxblur=20.0 / qblur=0.5 / ip_ratio=1.40 / pb_ratio=1.30 / aq=1:1.00
Language : French
Default : Yes
Forced : No

Audio
ID : 2
Format : DTS
Format/Info : Digital Theater Systems
Mode : 16
Format settings, Endianness : Big
Codec ID : A_DTS
Duration : 1h 19mn
Bit rate mode : Constant
Bit rate : 1 509 Kbps
Channel(s) : 6 channels
Channel positions : Front: L C R, Side: L R, LFE
Sampling rate : 48.0 KHz
Bit depth : 24 bits
Compression mode : Lossy
Stream size : 862 MiB (19%)
Title : French DTS
Language : French
Default : Yes
Forced : No