Telecharger Le Dollar troué [DVDRiP] French

Qualité BLURAY 1080p | MULTiLANGUES

Le Dollar troué

Le Dollar troué

Origine du film : Français, Italien
Réalisateur : Giorgio Ferroni
Acteurs : Giuliano Gemma, Ida Galli, Pierre Cressoy
Genre : Western
Durée : 1h39min
Année de production : 1965
Titre Original : Un Dollaro buccato
Note spectateurs : Le Dollar troué

; »>2,9/5 (8)

Le Dollar troué

Après la guerre de sécession, deux frêres, Gary et Phil O’Hara se séparent pour essayer de faire fortune chacun de leur côté. Mais, arrivé dans une ville, Gary est embauché par McCoy, l’homme fort de la ville, qui lui demande d’éliminer un criminel. Aussitôt le contrat effectué, Gary se rend compte qu’il vient d’assassiner son frêre. Vient alors le moment de régler ses comptes avec McCoy.
104884″ style= »display:inline; »>

Le Dollar troué

Format : MKV
Découpé avec : Winrar

Le Dollar troué

Le.Dollar.Troue.1966.MULTi.1080p.x264.-NoTaG

(6835 Mo)

[Liens Interchangeables entre hébergeurs: 6x 1000 Mo + 1x 835 Mo]

Uptobox
Télécharger

Uplea
Télécharger

1fichier
Télécharger

Uploaded
Télécharger

Rapidgator
Télécharger

TurboBit
Télécharger

[ Liens Premium ]

Uptobox
Télécharger

Uplea
Télécharger

1fichier
Télécharger

Uploaded
Télécharger

TurboBit
Télécharger

NFO :

Afficher / Masquer le texte 8a400615836da5a2f7429985abe13236″ class= »text_spoiler » style= »display:none; »>Le dollar troué 1966 MuLTi 1080p x264 -NoTaG.zone-telechargement.com.mkv
Format : Matroska
Format version : Version 4 / Version 2
File size : 6.67 GiB
Duration : 1h 32mn
Overall bit rate : 10.4 Mbps
Movie name : Le dollar troué (version intégrale)
Encoded date : UTC 2015-01-21 21:19:24
Writing application : mkvmerge v7.2.0 (‘On Every Street’) 64bit built on Sep 13 2014 15:52:10
Writing library : libebml v1.3.0 + libmatroska v1.4.1
DURATION : 01:32:07.656000000
NUMBER_OF_FRAMES : 230319
NUMBER_OF_BYTES : 132663744
_STATISTICS_WRITING_APP : mkvmerge v7.2.0 (‘On Every Street’) 64bit built on Sep 13 2014 15:52:10
_STATISTICS_WRITING_DATE_UTC : 2015-01-21 21:19:24
_STATISTICS_TAGS : BPS DURATION NUMBER_OF_FRAMES NUMBER_OF_BYTES

Video
ID : 1
Format : AVC
Format/Info : Advanced Video Codec
Format profile : [email protected]
Format settings, CABAC : Yes
Format settings, ReFrames : 2 frames
Codec ID : V_MPEG4/ISO/AVC
Duration : 1h 32mn
Bit rate : 9 782 Kbps
Width : 1 908 pixels
Height : 816 pixels
Display aspect ratio : 2.35:1
Frame rate mode : Constant
Frame rate : 29.970 fps
Color space : YUV
Chroma subsampling : 4:2:0
Bit depth : 8 bits
Scan type : Progressive
Bits/(Pixel*Frame) : 0.210
Stream size : 6.30 GiB (94%)
Writing library : x264 core
Default : Yes
Forced : No
Color primaries : BT.709
Transfer characteristics : BT.709
Matrix coefficients : BT.709

Audio #1
ID : 2
Format : MPEG Audio
Format version : Version 1
Format profile : Layer 3
Mode : Joint stereo
Mode extension : MS Stereo
Codec ID : A_MPEG/L3
Codec ID/Hint : MP3
Duration : 1h 32mn
Bit rate mode : Constant
Bit rate : 192 Kbps
Channel count : 2 channels
Sampling rate : 48.0 KHz
Compression mode : Lossy
Stream size : 127 MiB (2%)
Writing library : LAME3.96
Language : French
Default : Yes
Forced : No

Audio #2
ID : 3
Format : AC-3
Format/Info : Audio Coding 3
Mode extension : CM (complete main)
Format settings, Endianness : Big
Codec ID : A_AC3
Duration : 1h 32mn
Bit rate mode : Constant
Bit rate : 192 Kbps
Channel count : 2 channels
Channel positions : Front: L R
Sampling rate : 48.0 KHz
Bit depth : 16 bits
Compression mode : Lossy
Stream size : 127 MiB (2%)
Language : Italian
Default : No
Forced : No

Text
ID : 4
Format : UTF-8
Codec ID : S_TEXT/UTF8
Codec ID/Info : UTF-8 Plain Text
Title : FR forced
Language : French
Default : Yes
Forced : No

Jeux Gratuit
15354131_1854970838071206_1069261547_o.png