Telecharger Le Droit de tuer ? [BLURAY 720p] French

Qualité BLURAY 720p | MULTiLANGUES

Le Droit de tuer ?

Le Droit de tuer ?

Origine du film : Américain
Réalisateur : Joel Schumacher
Acteurs : Octavia Spencer, Oliver Platt, Matthew McConaughey
Genre : Drame, Thriller
Durée : 2h29min
Date de sortie : 13 novembre 1996
Année de production : 1996
Titre Original : A Time To Kill
Distribué par : Warner Bros. France
Note spectateurs : Le Droit de tuer ?

; »>3,3/5 (1 018)
Bande annonce :

efecb4ae53981fd637f673dbb4452032

19438291″>Cliquez-ici pour voir la bande annonce efecb4ae53981fd637f673dbb4452032″> 19438291

efecb4ae53981fd637f673dbb4452032

Le Droit de tuer ?

Dans une bourgade du Mississippi marquée par les violences racistes, Carl Lee Hailey, après le viol de sa fille de dix ans par deux Blancs, engage un jeune avocat, Jake Brigance. Il lui confie sa crainte de voir l’affaire finir en non-lieu. Quelques heures plus tard, Carl Lee se fait justice en abattant les deux violeurs. Bien decidé à sauver la tête de son client, Jake Brigance va être entrainé dans la terrible spirale de la violence.
99286″ style= »display:inline; »>

Le Droit de tuer ?

Format : MKV
Découpé avec : Winrar

Le Droit de tuer ?

Le Droit de Tuer 1996 MULTI 720p BluRay AC.3 x264-HR

(7131 Mo)

[Liens Interchangeables entre hébergeurs: 7x 1000 Mo + 1x 131 Mo]

Uptobox
Télécharger

Uplea
Télécharger

1fichier
Télécharger

Uploaded
Télécharger

Rapidgator
Télécharger

TurboBit
Télécharger

[ Liens Premium ]

Uptobox
Télécharger

Uplea
Télécharger

1fichier
Télécharger

Uploaded
Télécharger

TurboBit
Télécharger

NFO :

Afficher / Masquer le texte e5d672fcb9e4d7f807f15327c361defa » class= »text_spoiler » style= »display:none; »>Le Droit de Tuer 1996 MULTI 720p BluRay AC.3 x264-HR.mkv
Format : Matroska
Format version : Version 4 / Version 2
File size : 6.96 GiB
Duration : 2h 29mn
Overall bit rate mode : Variable
Overall bit rate : 6 670 Kbps
Encoded date : UTC 2014-09-12 12:35:35
Writing application : mkvmerge v7.1.0 (‘Good Love’) 64bit built on Jul 27 2014 12:22:11
Writing library : libebml v1.3.0 + libmatroska v1.4.1
DURATION : 02:28:07.378000000
NUMBER_OF_FRAMES : 4180
NUMBER_OF_BYTES : 19143355
_STATISTICS_WRITING_APP : mkvmerge v7.1.0 (‘Good Love’) 64bit built on Jul 27 2014 12:22:11
_STATISTICS_WRITING_DATE_UTC : 2014-09-12 12:35:35
_STATISTICS_TAGS : BPS DURATION NUMBER_OF_FRAMES NUMBER_OF_BYTES

Video
ID : 1
Format : AVC
Format/Info : Advanced Video Codec
Format profile : [email protected]
Format settings, CABAC : Yes
Format settings, ReFrames : 9 frames
Codec ID : V_MPEG4/ISO/AVC
Duration : 2h 29mn
Bit rate : 4 336 Kbps
Width : 1 280 pixels
Height : 532 pixels
Display aspect ratio : 2.40:1
Frame rate : 23.976 fps
Color space : YUV
Chroma subsampling : 4:2:0
Bit depth : 8 bits
Scan type : Progressive
Bits/(Pixel*Frame) : 0.266
Stream size : 4.53 GiB (65%)
Writing library : x264 core 140 r2 1ca7bb9
Encoding settings : cabac=1 / ref=9 / deblock=1:-3:-3 / analyse=0x3:0x113 / me=umh / subme=10 / psy=1 / psy_rd=0.98:0.25 / mixed_ref=1 / me_range=128 / chroma_me=1 / trellis=2 / 8x8dct=1 / cqm=0 / deadzone=6,6 / fast_pskip=0 / chroma_qp_offset=-4 / threads=12 / lookahead_threads=2 / sliced_threads=0 / nr=0 / decimate=0 / interlaced=0 / bluray_compat=0 / constrained_intra=0 / bframes=8 / b_pyramid=2 / b_adapt=2 / b_bias=0 / direct=3 / weightb=1 / open_gop=1 / weightp=2 / keyint=250 / keyint_min=23 / scenecut=40 / intra_refresh=0 / rc_lookahead=250 / rc=crf / mbtree=1 / crf=17.5 / qcomp=0.65 / qpmin=0 / qpmax=69 / qpstep=4 / vbv_maxrate=50000 / vbv_bufsize=50000 / crf_max=0.0 / nal_hrd=none / filler=0 / ip_ratio=1.40 / aq=2:0.75
Language : English
Default : Yes
Forced : No
DURATION : 02:29:29.845000000
NUMBER_OF_FRAMES : 215061
NUMBER_OF_BYTES : 4287495486
_STATISTICS_WRITING_APP : mkvmerge v7.1.0 (‘Good Love’) 64bit built on Jul 27 2014 12:22:11
_STATISTICS_WRITING_DATE_UTC : 2014-09-12 12:35:35
_STATISTICS_TAGS : BPS DURATION NUMBER_OF_FRAMES NUMBER_OF_BYTES
Color primaries : BT.709-5, BT.1361, IEC 61966-2-4, SMPTE RP177
Transfer characteristics : BT.709-5, BT.1361
Matrix coefficients : BT.709-5, BT.1361, IEC 61966-2-4 709, SMPTE RP177

Audio #1
ID : 2
Format : AC-3
Format/Info : Audio Coding 3
Mode extension : CM (complete main)
Format settings, Endianness : Big
Codec ID : A_AC3
Duration : 2h 29mn
Bit rate mode : Constant
Bit rate : 640 Kbps
Channel(s) : 6 channels
Channel positions : Front: L C R, Side: L R, LFE
Sampling rate : 48.0 KHz
Bit depth : 16 bits
Compression mode : Lossy
Stream size : 684 MiB (10%)
Title : FRANCAIS AC.3 5.1 @ 640kbps
Language : French
Default : Yes
Forced : No

Audio #2
ID : 3
Format : DTS
Format/Info : Digital Theater Systems
Format profile : MA / Core
Codec ID : A_DTS
Duration : 2h 29mn
Bit rate mode : Variable
Bit rate : 1 561 Kbps / 1 510 Kbps
Channel(s) : 6 channels
Channel positions : Front: L C R, Side: L R, LFE
Sampling rate : 48.0 KHz
Bit depth : 16 bits
Compression mode : Lossless / Lossy
Title : ENGLISH DTS-HD MA 5.1 @ 1510 kbps
Language : English
Default : No
Forced : No

Text #1
ID : 4
Format : UTF-8
Codec ID : S_TEXT/UTF8
Codec ID/Info : UTF-8 Plain Text
Title : FRANCAIS COMPLETS
Language : French
Default : No
Forced : No

Text #2
ID : 5
Format : PGS
Muxing mode : zlib
Codec ID : S_HDMV/PGS
Codec ID/Info : The same subtitle format used on BDs/HD-DVDs
Title : ENGLISH FULL
Language : English
Default : No
Forced : No

Menu
00:00:00.000 : en:Credits; Cobb and Willard.
00:03:35.132 : en:Assult on a Country Road.
00:09:15.555 : en:What Would You Do?
00:15:17.333 : en:Retribution (Take My Hand, Precious Lord).
00:19:47.520 : en:Carl Lee’s New Attorney.
00:25:29.862 : en:Buckley’s Birthday.
00:27:13.924 : en:One Case at a Time.
00:29:12.584 : en:We Need Some Klan.
00:31:45.987 : en:Preliminary Hearing.
00:36:45.161 : en: »I Need to Live Too »
00:37:39.549 : en:Roark Makes an Offer.
00:40:30.470 : en:Sisson Makes an Offer.
00:42:48.524 : en:Late-Night Apology – and Invitation.
00:45:32.521 : en:Churchgoers with Agendas.
00:48:48.384 : en:The Klan Comes Calling.
00:50:47.002 : en:Family Strains.
00:52:55.631 : en:Defense Funds.
01:00:28.083 : en: »We Ain’t No Team »
01:01:03.076 : en:Real Law for a Change.
01:03:51.745 : en:A Bomber’s Target.
01:05:55.118 : en:Promises You Can’t Keep.
01:07:13.112 : en:Noose’s Advice.
01:11:23.237 : en:Passion Over Lunch.
01:15:55.760 : en:A Jury of Carl Lee’s Peers.
01:18:18.861 : en:Fury in the Streets.
01:23:24.374 : en:Not Just Carl Lee.
01:25:46.141 : en:The Good Guys.
01:27:39.421 : en:Not Walking Away.
01:31:15.553 : en:First Blood.
01:35:33.728 : en: »We’ve All Lost Here »
01:37:12.577 : en:Cheating Like Crazy.
01:38:43.668 : en:Roark Goes Undercover.
01:39:51.569 : en:Looney’s Outery.
01:44:13.789 : en:Rodeheaver’s Record.
01:49:01.368 : en:Roark in Harm’s Way.
01:54:42.459 : en:Hooking Dr. Bass.
01:58:42.574 : en:Seeking Justice in It’s Hiding Place.
02:00:17.252 : en: »and I Hope They Burn in Hell »
02:02:38.268 : en:One Big Fat Chance.
02:06:20.406 : en:Carla Makes Things Right.
02:08:31.454 : en:How You Save Us Both.
02:11:45.231 : en:No Right to Kill.
02:13:19.158 : en:The Truth Via the Heart.
02:21:05.332 : en:The Verdict.
02:23:01.448 : en:Our Kids Playing Together.
02:25:16.499 : en:End Credits (Take My Hand, Precious Lord).